↑↓torrent.by
Поиск
Логин: Регистрация
Пароль: Восстановить пароль

Катя и Блэк [01-08 из 08] (2020) HDTVRip от GeneralFilm

Скачать katya-i-blek-01-08-iz-2020-hdtvrip-ot-generalfilm.torrent
U Магнитная ссылка Размер: 5.18 GB Раздают: 82 Качают: 60 Добавлен: 2020-05-22 05:24:47
Катя и Блэк [01-08 из 08] (2020) HDTVRip от GeneralFilm

Год выпуска: 2020
Жанр:  Детектив
Выпущено: Россия, ООО «Студия 2В»
Режиссер: Гузэль Киреева
В ролях: Юлия Мельникова, Дмитрий Ратомский, Сергей Громов, Никита Абдулов, Марина Дровосекова, Армен Арушанян, Борис Щербаков, Маргарита Бугаева, Константин Милованов, Анатолий Голуб, Михаил Евланов, Владимир Кошевой, Владимир Юматов, Степан Абрамов, Александр Бобров, Александр Гунькин, Александр Красовский, Алёна Новицкая, Ян Хуснояров, Дэвид Аласания

О фильме: Капитан полиции Екатерина Шатрова, рискуя жизнью, помогает в поимке серийного убийцы Котова. Однако у преступника на свободе остался жестокий подельник, который начинает выслеживать Шатрову, чтобы отомстить. К счастью, Катю переводят в областной центр, где она возглавляет группу оперативников, состоящую из брутального капитана Андрея Веселова, интеллектуала Василия Савчука и эксперта-криминалиста Арины Соболь. Но, главное, что волею случая в жизни Кати появляется умный и самоотверженный пес по кличке Блэк. Обаятельный золотистый ретривер начинает помогать своей новой хозяйке в расследованиях. Вместе они раскрывают множество сложных дел, и каждый раз Блэк оказывается «на высоте», находя важные улики, выслеживая насильников, похитителей и убийц, а также охраняя Катину дочь Лизу… Но окажется ли Блэк рядом с Катей, когда ей самой понадобится помощь…

Качество: HDTVRip
Видео: XviD, ~ 1600 Кбит/с, 720x400, 25 кадр/с
Аудио: Русский (AC3, 2 ch, 192 Кбит/с)
Продолжительность: 8 х ~ 00:50:00
Перевод: Не требуется
Субтитры: нет

Релиз:


[+] MediaInfo

Общее
Полное имя                               : D:Katja i Bljek.HDTVRip.GeneralFilm1.Katja i Bljek.HDTVRip.GeneralFilm.avi
Формат                                   : AVI
Формат/Информация                        : Audio Video Interleave
Размер файла                             : 660 Мбайт
Продолжительность                        : 51 м.
Общий поток                              : 1803 Кбит/сек

Видео
Идентификатор                            : 0
Формат                                   : MPEG-4 Visual
Профиль формата                          : Advanced Simple@L5
Параметр BVOP формата                    : 1
Параметр QPel формата                    : Нет
Параметр GMC формата                     : Без точки перехода
Параметр матрицы формата                 : Выборочная
Идентификатор кодека                     : XVID
Идентификатор кодека/Подсказка           : XviD
Продолжительность                        : 51 м.
Битрейт                                  : 1599 Кбит/сек
Ширина                                   : 720 пикселей
Высота                                   : 400 пикселей
Соотношение сторон                       : 16:9
Частота кадров                           : 25,000 кадров/сек
Цветовое пространство                    : YUV
Субдискретизация насыщенности            : 4:2:0
Битовая глубина                          : 8 бит
Тип развёртки                            : Прогрессивная
Метод сжатия                             : С потерями
Бит/(Пиксели*Кадры)                      : 0.222
Размер потока                            : 585 Мбайт (89%)
Библиотека кодирования                   : XviD 1.2.1 (UTC 2008-12-04)

Аудио
Идентификатор                            : 1
Формат                                   : AC-3
Формат/Информация                        : Audio Coding 3
Расширение режима                        : CM (complete main)
Параметр Endianness формата              : Big
Идентификатор кодека                     : 2000
Продолжительность                        : 51 м.
Вид битрейта                             : Постоянный
Битрейт                                  : 192 Кбит/сек
Каналы                                   : 2 канала
Расположение каналов                     : Front: L R
Частота                                  : 48,0 КГц
Битовая глубина                          : 16 бит
Метод сжатия                             : С потерями
Размер потока                            : 70,3 Мбайт (11%)
Выравнивание                             : Соединение по промежуткам
Продолжительность промежутка             : 32  мс. (0,80 видеокадр)




Скриншоты:
[+] Всего файлов в раздаче - 8:
01.Katja i Bljek.HDTVRip.GeneralFilm.avi660.01 MB
02.Katja i Bljek.HDTVRip.GeneralFilm.avi664.90 MB
03.Katja i Bljek.HDTVRip.GeneralFilm.avi664.20 MB
04.Katja i Bljek.HDTVRip.GeneralFilm.avi662.96 MB
05.Katja i Bljek.HDTVRip.GeneralFilm.avi661.82 MB
06.Katja i Bljek.HDTVRip.GeneralFilm.avi664.10 MB
07.Katja i Bljek.HDTVRip.GeneralFilm.avi666.26 MB
08.Katja i Bljek.HDTVRip.GeneralFilm.avi662.14 MB

Показать еще раздачи по запросу катя:
2020-05-25 U ДАУ. Катя Таня / DAU. Katya Tanya (2020) WEB-DL 1080p 3.13 GB ↑ 197 ↓ 97
2020-05-22 U Катя и Блэк [01-08 из 08] (2020) WEBRip от GeneralFilm 4.35 GB ↑ 80 ↓ 90
2020-05-21 U Катя и Блэк [01-08 из 08] (2018) SATRip-AVC 4.87 GB ↑ 40 ↓ 9
2020-05-21 U Катя и Блэк [01-07 из 08] (2020) HDTVRip от GeneralFilm 4.54 GB ↑ 40 ↓ 56
2020-05-20 U Катя и Блэк [01-06 из 08] (2020) HDTVRip от GeneralFilm 3.88 GB ↑ 27 ↓ 30
2020-05-19 U Катя и Блэк [01-05 из 08] (2020) HDTVRip от GeneralFilm 1К3.24 GB ↑ 27 ↓ 26
2020-05-13 U Катя и Блэк [01-02 из 08] (2020) HDTVRip от GeneralFilm 1.29 GB ↑ 33 ↓ 23

Отзывы
Зарегистрируйтесь чтобы добавить комментарий.
Обратная связь
Copyleft ©