↑↓torrent.by
Поиск
Логин: Регистрация
Пароль: Восстановить пароль

Девушка в лабиринте / L'uomo del labirinto (2019) BDRip 1080p от селезень | iTunes

Скачать devushka-v-labirinte-l-uomo-del-labirinto-2019-bdrip-1080p-ot-selezen-itunes.torrent
U Магнитная ссылка Размер: 11.45 GB Раздают: 83 Качают: 25 Добавлен: 2020-05-22 05:25:12
Девушка в лабиринте / L'uomo del labirinto (2019) BDRip 1080p от селезень | iTunes

Название: Девушка в лабиринте
Оригинальное название: L'uomo del labirinto
Год выхода: 2019
Жанр: Триллер, детектив, экранизация
Режиссер: Донато Карризи
В ролях: Дастин Хоффман, Тони Сервилло, Валентина Белле, Виничио Маркиони, Кацярына Шульга, Орландо Синк, Филиппо Дини, Серджо Гроссини, Карла Кассола, Луис Ньекко

О фильме: Саманта просыпается со сломанной ногой в комнате без окон. Она дезориентирована и ничего не помнит. Криминальный психолог доктор Грин объясняет испуганной девушке, что её похитили 15 лет назад. Каким-то чудом Саманте удалось бежать, и теперь психологу нужно проникнуть в её разум, чтобы найти похитителя. Помимо Грина, случаем Саманты занимается частный детектив Бруно Генко, для которого поиски похитителя - таинственного человека в маске - должны стать последним делом жизни. Попытка разгадать тайну Саманты превращается в гонку в лабиринте, где каждая подсказка может стать ловушкой, а за каждой дверью может таиться смерть.

Страна: Италия
Студия: Gavila, Colorado Film Production
Продолжительность: 02:10:23
Перевод: Дублированный | iTunes

Качество: BDRip 1080p
Видео: MPEG-4 AVC, 1920x802, 11.5 Mbit/s, 23.976 fps
Аудио #01: 48 kHz, AC3, 5.1, 384 Kbps | iTunes | RUS |
Аудио #02: 48 kHz, AC3, 5.1, 640 Kbps | Оригинал |  ITA |
Субтитры: Итальянские

Релиз:


[+] MI
General
Unique ID                   : 167406674386517322425156668295680176860 (0x7DF15A4B2538A5AF4DC33BE37ED932DC)
Complete name               : E:Video111L.uomo.del.Labirinto.2019.BDRip.1080p.seleZen.mkv
Format                      : Matroska
Format version              : Version 4
File size                   : 11.4 GiB
Duration                    : 2 h 10 min
Overall bit rate            : 12.6 Mb/s
Movie name                  : L'uomo del labirinto 2019 from селезень
Encoded date                : UTC 2020-05-21 10:03:29
Writing application         : mkvmerge v40.0.0 ('Old Town Road + Pony') 64-bit
Writing library             : libebml v1.3.9 + libmatroska v1.5.2

Video
ID                          : 1
Format                      : AVC
Format/Info                 : Advanced Video Codec
Format profile              : High@L4.1
Format settings             : CABAC / 5 Ref Frames
Format settings, CABAC      : Yes
Format settings, Reference  : 5 frames
Codec ID                    : V_MPEG4/ISO/AVC
Duration                    : 2 h 10 min
Bit rate                    : 11.5 Mb/s
Width                       : 1 920 pixels
Height                      : 802 pixels
Display aspect ratio        : 2.40:1
Frame rate mode             : Constant
Frame rate                  : 23.976 (24000/1001) FPS
Color space                 : YUV
Chroma subsampling          : 4:2:0
Bit depth                   : 8 bits
Scan type                   : Progressive
Bits/(Pixel*Frame)          : 0.313
Stream size                 : 10.5 GiB (92%)
Title                       : Encoded by seleZen
Writing library             : x264 core 142 r2431+42 c69a006 tMod [8-bit@all X86_64]
Encoding settings           : cabac=1 / ref=5 / deblock=1:-2:-2 / analyse=0x3:0x133 / me=umh / subme=11 / psy=1 / fade_compensate=0.00 / psy_rd=1.00:0.00 / mixed_ref=1 / me_range=48 / chroma_me=1 / trellis=2 / 8x8dct=1 / cqm=0 / deadzone=21,11 / fast_pskip=0 / chroma_qp_offset=-2 / threads=24 / lookahead_threads=6 / sliced_threads=0 / nr=0 / decimate=0 / interlaced=0 / bluray_compat=0 / constrained_intra=0 / fgo=0 / bframes=10 / b_pyramid=2 / b_adapt=2 / b_bias=0 / direct=3 / weightb=1 / open_gop=0 / weightp=2 / keyint=240 / keyint_min=23 / scenecut=40 / intra_refresh=0 / rc_lookahead=50 / rc=2pass / mbtree=0 / bitrate=11547 / ratetol=1.0 / qcomp=0.60 / qpmin=0:0:0 / qpmax=51:51:51 / qpstep=4 / cplxblur=20.0 / qblur=0.5 / vbv_maxrate=50000 / vbv_bufsize=62500 / nal_hrd=none / filler=0 / ip_ratio=1.40 / pb_ratio=1.30 / aq=3:0.80 / aq-sensitivity=10.00 / aq-factor=1.00:1.00:1.00 / aq2=0 / aq3=0
Language                    : German
Default                     : Yes
Forced                      : No

Audio #1
ID                          : 2
Format                      : AC-3
Format/Info                 : Audio Coding 3
Commercial name             : Dolby Digital
Codec ID                    : A_AC3
Duration                    : 2 h 10 min
Bit rate mode               : Constant
Bit rate                    : 384 kb/s
Channel(s)                  : 6 channels
Channel layout              : L R C LFE Ls Rs
Sampling rate               : 48.0 kHz
Frame rate                  : 31.250 FPS (1536 SPF)
Compression mode            : Lossy
Stream size                 : 358 MiB (3%)
Title                       : iTunes
Language                    : Russian
Service kind                : Complete Main
Default                     : Yes
Forced                      : Yes

Audio #2
ID                          : 3
Format                      : AC-3
Format/Info                 : Audio Coding 3
Commercial name             : Dolby Digital
Codec ID                    : A_AC3
Duration                    : 2 h 10 min
Bit rate mode               : Constant
Bit rate                    : 640 kb/s
Channel(s)                  : 6 channels
Channel layout              : L R C LFE Ls Rs
Sampling rate               : 48.0 kHz
Frame rate                  : 31.250 FPS (1536 SPF)
Compression mode            : Lossy
Stream size                 : 597 MiB (5%)
Title                       : Original
Language                    : Italian
Service kind                : Complete Main
Default                     : No
Forced                      : No

Text
ID                          : 4
Format                      : UTF-8
Codec ID                    : S_TEXT/UTF8
Codec ID/Info               : UTF-8 Plain Text
Duration                    : 2 h 3 min
Bit rate                    : 40 b/s
Count of elements           : 875
Stream size                 : 36.5 KiB (0%)
Title                       : SDH
Language                    : Italian
Default                     : No
Forced                      : No

Menu
00:00:00.000                : de:
00:10:15.323                : de:
00:20:32.064                : de:
00:35:06.980                : de:
00:44:58.779                : de:
00:57:51.301                : de:
01:06:38.703                : de:
01:17:06.497                : de:
01:28:15.499                : de:
01:38:24.357                : de:
01:52:58.563                : de:
02:03:25.773                : de:



Скриншоты:
[+] Всего файлов в раздаче - 1:
L.uomo.del.Labirinto.2019.BDRip.1080p.seleZen.mkv11.45 GB

Показать еще раздачи по запросу девушка:
2020-05-31 U Девушка из первой квартиры / 1BR (2019) BDRip от MegaPeer | L2 1.46 GB ↑ 51 ↓ 14
2020-05-31 U Девушка из первой квартиры / 1BR (2019) BDRip 1080p | L2 7.18 GB ↑ 42 ↓ 13
2020-05-30 U Не та девушка / The Wrong Missy (2020) WEB-DLRip | P2 1.46 GB ↑ 94 ↓ 32
2020-05-29 U Не та девушка / The Wrong Missy (2020) WEBRip 1080p | P2 5.88 GB ↑ 77 ↓ 61
2020-05-21 U Девушка в лабиринте / L'uomo del labirinto (2019) BDRip от MegaPeer | iTunes 2.12 GB ↑ 129 ↓ 28
2020-05-20 U Девушка в лабиринте / L'uomo del labirinto (2019) BDRip от MegaPeer | iTunes 1К1.46 GB ↑ 410 ↓ 22
2020-05-15 U Не та девушка / The Wrong Missy (2020) WEBRip | LakeFilms 1.07 GB ↑ 140 ↓ 39

Отзывы
Зарегистрируйтесь чтобы добавить комментарий.
Обратная связь
Copyleft ©