↑↓torrent.by
Поиск
Логин: Регистрация
Пароль: Восстановить пароль

Ловец снов / Dreamkatcher (2020) WEB-DL 1080p | A

Скачать lovec-snov-dreamkatcher-2020-web-dl-1080p-a.torrent
U Магнитная ссылка Размер: 5.34 GB Раздают: 66 Качают: 23 Добавлен: 2020-05-22 05:25:25
Ловец снов / Dreamkatcher (2020) WEB-DL 1080p | A

Название: Ловец снов
Оригинальное название: Dreamkatcher
Год выхода: 2020
Жанр: Ужасы, триллер
Режиссер: Керри Харрис
В ролях: Рада Митчелл, Генри Томас, Лин Шэй, Жуль Уиллкокс, Джозеф Бишара, Финлэй Войтаг-Хиссонг, Дункан Фостер-Аллен, Дж. Кристиан Ингвордсен, Белла Мари Фучиле, Каллен Риера

О фильме:
Совсем немного времени прошло после убийства жены Люка соседским мальчишкой в отдалённом лесном домике, но мужчина привозит туда свою новую пассию Гейл и сына Джоша. Ребёнка мучают страшные сны, в которых ему является мёртвая мама, а Гейл — детский психилог со стажем — изо всех сил пытается помочь мальчику. Однажды, наслушавшись рассказов соседки про ловцы снов, Джош крадёт у неё из сундука полезную, как он думал, для избавления от кошмаров вещь, но после этого его сны становятся ещё более реалистичными и пугающими.

Страна: США
Студия: Taylor Lane Productions
Продолжительность: 01:25:17
Перевод: Авторский | Андрей Дольский

Файл
Кодек: x.264
Качество: WEB-DL 1080p | AMZN
Видео: MPEG-4 AVC, 7866 Kбит/с, 1920x1080, 23.976 кадр/с
Аудио #1: Русский (АС3, 6 ch, 448 Кбит/с, 48.0 KHz) Aвторский (одноголосый, закадровый)  Андрей Дольский
Аудио #2: Английский (АС3, 6 ch, 640 Кбит/с, 48.0 KHz)
Субтитры: Русские (Full, SDH (Khotya-303), английские
► Без Рекламы!
Трейлер




[+] MediaInfo
Источник: Dreamkatcher.2020.1080p.AMZN.WEB-DL.DDP5.1.H.264-NTG
General
Unique ID                      : 226728300996507351514530623718725867930 (0xAA92484C36962F9EBD78251FC735599A)
Complete name                  : Dreamkatcher.2020.AMZN.WEB-DL.1080p.mkv
Format                         : Matroska
Format version                 : Version 4
File size                      : 5.34 GiB
Duration                       : 1 h 25 min
Overall bit rate               : 8 955 kb/s
Encoded date                   : UTC 2020-05-21 08:03:26
Writing application            : mkvmerge v7.1.0 ('Good Love') 64bit built on Jul 27 2014 13:06:55
Writing library                : libebml v1.3.0 + libmatroska v1.4.1

Video
ID                             : 1
Format                         : AVC
Format/Info                    : Advanced Video Codec
Format profile                 : High@L4
Format settings                : CABAC / 4 Ref Frames
Format settings, CABAC         : Yes
Format settings, Reference fra : 4 frames
Codec ID                       : V_MPEG4/ISO/AVC
Duration                       : 1 h 25 min
Bit rate mode                  : Constant
Bit rate                       : 7 866 kb/s
Nominal bit rate               : 10 000 kb/s
Width                          : 1 920 pixels
Height                         : 1 080 pixels
Display aspect ratio           : 16:9
Frame rate mode                : Constant
Frame rate                     : 23.976 (24000/1001) FPS
Color space                    : YUV
Chroma subsampling             : 4:2:0
Bit depth                      : 8 bits
Scan type                      : Progressive
Bits/(Pixel*Frame)             : 0.158
Stream size                    : 4.69 GiB (88%)
Language                       : English
Default                        : Yes
Forced                         : No
Color range                    : Limited
Color primaries                : BT.709
Transfer characteristics       : BT.709
Matrix coefficients            : BT.709

Audio #1
ID                             : 2
Format                         : AC-3
Format/Info                    : Audio Coding 3
Commercial name                : Dolby Digital
Codec ID                       : A_AC3
Duration                       : 1 h 25 min
Bit rate mode                  : Constant
Bit rate                       : 448 kb/s
Channel(s)                     : 6 channels
Channel layout                 : L R C LFE Ls Rs
Sampling rate                  : 48.0 kHz
Frame rate                     : 31.250 FPS (1536 SPF)
Compression mode               : Lossy
Stream size                    : 273 MiB (5%)
Title                          : AVO | А. Дольский
Language                       : Russian
Service kind                   : Complete Main
Default                        : Yes
Forced                         : No

Audio #2
ID                             : 3
Format                         : AC-3
Format/Info                    : Audio Coding 3
Commercial name                : Dolby Digital
Codec ID                       : A_AC3
Duration                       : 1 h 25 min
Bit rate mode                  : Constant
Bit rate                       : 640 kb/s
Channel(s)                     : 6 channels
Channel layout                 : L R C LFE Ls Rs
Sampling rate                  : 48.0 kHz
Frame rate                     : 31.250 FPS (1536 SPF)
Compression mode               : Lossy
Stream size                    : 390 MiB (7%)
Language                       : English
Service kind                   : Complete Main
Default                        : No
Forced                         : No

Text #1
ID                             : 4
Format                         : UTF-8
Codec ID                       : S_TEXT/UTF8
Codec ID/Info                  : UTF-8 Plain Text
Duration                       : 1 h 19 min
Bit rate                       : 69 b/s
Count of elements              : 762
Stream size                    : 40.6 KiB (0%)
Title                          : Full
Language                       : Russian
Default                        : No
Forced                         : No

Text #2
ID                             : 5
Format                         : UTF-8
Codec ID                       : S_TEXT/UTF8
Codec ID/Info                  : UTF-8 Plain Text
Duration                       : 1 h 19 min
Bit rate                       : 80 b/s
Count of elements              : 907
Stream size                    : 46.6 KiB (0%)
Title                          : SDH
Language                       : Russian
Default                        : No
Forced                         : No

Text #3
ID                             : 6
Format                         : UTF-8
Codec ID                       : S_TEXT/UTF8
Codec ID/Info                  : UTF-8 Plain Text
Duration                       : 1 h 11 min
Bit rate                       : 41 b/s
Count of elements              : 747
Stream size                    : 21.8 KiB (0%)
Language                       : English
Default                        : No
Forced                         : No

Text #4
ID                             : 7
Format                         : UTF-8
Codec ID                       : S_TEXT/UTF8
Codec ID/Info                  : UTF-8 Plain Text
Duration                       : 1 h 17 min
Bit rate                       : 43 b/s
Count of elements              : 856
Stream size                    : 24.3 KiB (0%)
Title                          : SDH
Language                       : English
Default                        : No
Forced                         : No



Скриншоты:
[+] Всего файлов в раздаче - 1:
Dreamkatcher.2020.AMZN.WEB-DL.1080p.mkv5.34 GB

Отзывы
Зарегистрируйтесь чтобы добавить комментарий.
Обратная связь
Copyleft ©