↑↓torrent.by
Поиск
Логин: Регистрация
Пароль: Восстановить пароль

Тёмное наследие / Inheritance (2020) WEB-DLRip-AVC от MediaBit | iTunes | 10 bit

Скачать temnoe-nasledie-inheritance-2020-web-dlrip-avc-ot-mediabit-itunes-10-bit.torrent
U Магнитная ссылка Размер: 1.93 GB Раздают: 163 Качают: 59 Добавлен: 2020-05-22 19:29:33
Тёмное наследие / Inheritance (2020) WEB-DLRip-AVC от MediaBit | iTunes | 10 bit

Название: Тёмное наследие
Оригинальное название: Inheritance
Год выхода: 2020
Жанр: Триллер, драма, детектив
Режиссер: Вон Стайн
В ролях: Лили Коллинз, Саймон Пегг, Конни Нильсен, Чейс Кроуфорд, Марке Ричардсон II, Майкл Бич, Крис Гэнн, Хосе Херрера, Кристина ДеРоса, Харрисон Стоун, Ребекка Адамс, Джим И Чандлер, Кэти Колэуэй

О фильме:
Главная героиня фильма «Темное наследие» - девушка Лорен из богатой семьи, которая увлеченно и весьма успешно делает карьеру адвоката. Ее отец Морган - мужчина в самом рассвете сил и в отличной форме внезапно умирает от сердечного приступа. Лорен – единственная наследница Моргана. Вскоре выясняется, что среди множества оставленных в наследство вещей есть один весьма необычный предмет – ключ от какого-то странного бункера. Спустившись в подвал собственного дома, главная героиня находит потайную дверь и открывает ее с помощью того ключа. Там в темноте она обнаруживает закованного в цепи заросшего, грязного и обессиленного человека. Похоже, многого о своем любимом папочке Лорен не знала…

Страна: США
Студия: Highland Film Group (HFG), Ingenious Media, Southpaw Entertainment (I)
Продолжительность: 01:50:59
Перевод: Дублированный

Файл
Кодек: MPEG-4 AVC
Качество: WEB-DLRip-AVC
Видео: 2100 Кбит/с, 1024x428, 24.000 кадр/с, 10 бит
Звук: Русский - AC3, 6 ch, 384 Кбит/с
Субтитры: Русские

Семпл

Релиз:


[+] MI

General
Unique ID                   : 29431572482097390665883267514813646185 (0x1624508E909C271AC4854E02C9A00569)
Complete name               : D:2020 рипыТемное наследиеTemnoe.nasledie.2019.x264.WEB-DL-Rip-MediaBit.mkv
Format                      : Matroska
Format version              : Version 4 / Version 2
File size                   : 1.93 GiB
Duration                    : 1 h 51 min
Overall bit rate            : 2 484 kb/s
Movie name                  : Тёмное наследие
Encoded date                : UTC 2020-05-21 06:56:02
Writing application         : mkvmerge v25.0.0 ('Prog Noir') 64-bit
Writing library             : libebml v1.3.6 + libmatroska v1.4.9 / Lavf58.20.100
ENCODING_INFO               : MATROSKA,WEBM > MKV

Video
ID                          : 1
Format                      : AVC
Format/Info                 : Advanced Video Codec
Format profile              : High 10@L4.1
Format settings             : CABAC / 10 Ref Frames
Format settings, CABAC      : Yes
Format settings, ReFrames   : 10 frames
Codec ID                    : V_MPEG4/ISO/AVC
Duration                    : 1 h 50 min
Bit rate                    : 2 100 kb/s
Width                       : 1 024 pixels
Height                      : 428 pixels
Display aspect ratio        : 2.40:1
Frame rate mode             : Constant
Frame rate                  : 24.000 FPS
Color space                 : YUV
Chroma subsampling          : 4:2:0
Bit depth                   : 10 bits
Scan type                   : Progressive
Bits/(Pixel*Frame)          : 0.200
Stream size                 : 1.63 GiB (84%)
Writing library             : x264 core 157 r2958 57baac4
Encoding settings           : cabac=1 / ref=10 / deblock=1:-3:-3 / analyse=0x3:0x133 / me=umh / subme=9 / psy=1 / psy_rd=1.00:0.15 / mixed_ref=1 / me_range=48 / chroma_me=1 / trellis=1 / 8x8dct=1 / cqm=0 / deadzone=21,11 / fast_pskip=1 / chroma_qp_offset=-3 / threads=6 / lookahead_threads=1 / sliced_threads=0 / nr=0 / decimate=1 / interlaced=0 / bluray_compat=0 / constrained_intra=0 / bframes=10 / b_pyramid=2 / b_adapt=2 / b_bias=10 / direct=3 / weightb=1 / open_gop=0 / weightp=2 / keyint=240 / keyint_min=24 / scenecut=23 / intra_refresh=0 / rc_lookahead=240 / rc=2pass / mbtree=1 / bitrate=2100 / ratetol=1.0 / qcomp=0.60 / qpmin=0 / qpmax=69 / qpstep=4 / cplxblur=20.0 / qblur=0.5 / ip_ratio=1.40 / aq=1:1.00
Language                    : English
Default                     : Yes
Forced                      : No
Color range                 : Limited
Color primaries             : BT.709
Transfer characteristics    : BT.709
Matrix coefficients         : BT.709
ENCODING_INFO               : H264 > X264 VBR-2P 2100kbps HQ

Audio
ID                          : 2
Format                      : AC-3
Format/Info                 : Audio Coding 3
Codec ID                    : A_AC3
Duration                    : 1 h 51 min
Bit rate mode               : Constant
Bit rate                    : 384 kb/s
Channel(s)                  : 6 channels
Channel positions           : Front: L C R, Side: L R, LFE
Sampling rate               : 48.0 kHz
Frame rate                  : 31.250 FPS (1536 SPF)
Bit depth                   : 16 bits
Compression mode            : Lossy
Stream size                 : 305 MiB (15%)
Title                       : iTunes
Language                    : Russian
Service kind                : Complete Main
Default                     : Yes
Forced                      : No
ENCODING_INFO               : AC3 > AC3 CBR 384kbps

Text
ID                          : 3
Format                      : UTF-8
Codec ID                    : S_TEXT/UTF8
Codec ID/Info               : UTF-8 Plain Text
Duration                    : 1 h 46 min
Bit rate                    : 85 b/s
Count of elements           : 1240
Stream size                 : 67.1 KiB (0%)
Title                       : Full
Language                    : Russian
Default                     : Yes
Forced                      : No
ENCODING_INFO               : SUBRIP > COPY Быстрое

Menu
00:00:00.000                : :Глава 1
00:04:04.125                : :Глава 2
00:11:31.915                : :Глава 3
00:19:44.830                : :Глава 4
00:29:36.288                : :Глава 5
00:42:51.079                : :Глава 6
00:51:04.245                : :Глава 7
00:59:14.286                : :Глава 8
01:09:47.743                : :Глава 9
01:16:19.200                : :Глава 10
01:25:44.282                : :Глава 11
01:31:30.823                : :Глава 12



Скриншоты:
[+] Всего файлов в раздаче - 1:
Temnoe.nasledie.2019.x264.WEB-DL-Rip-MediaBit.mkv1.93 GB

Отзывы
Зарегистрируйтесь чтобы добавить комментарий.
Обратная связь
Copyleft ©