↑↓torrent.by
Поиск
Логин: Регистрация
Пароль: Восстановить пароль

Разбитое зеркало [01-08 из 08] (2020) WEBRip от GeneralFilm

Скачать razbitoe-zerkalo-01-08-iz-2020-webrip-ot-generalfilm.torrent
U Магнитная ссылка Размер: 4.35 GB Раздают: 130 Качают: 59 Добавлен: 2020-05-22 19:29:53
Разбитое зеркало [01-08 из 08] (2020) WEBRip от GeneralFilm

Оригинальное название: Разбитое зеркало
Год выпуска: 2020
Жанр:  Мелодрама
Выпущено: Россия, «ЕМГ»
Режиссер: Олег Фомин
В ролях: Екатерина Гусева, Александр Лазарев (младший), Алексей Макаров, Станислав Дужников, Екатерина Волкова, Владимир Гостюхин, Денис Нурулин, Мирослава Михайлова, Арина Постникова, Дарья Белодед, Андрей Карако, Зоя Мансурова, Владимир Хацкевич, Алла Будницкая, Александр Головин, Мария Селянская, Сергей Лазарев (VII)

О фильме: Когда в найденной спустя двадцать лет сумке почтальона обнаруживаются сохранившиеся письма, Даша узнает, что её любимый человек Олег, которого все считали погибшим, на самом деле, выжил. Если бы Даша получила это письмо вовремя, она бы не вышла замуж за нелюбимого и вся её жизнь сложилась бы иначе. Даша решает выяснить, что же на самом деле случилось много лет назад. Распутывая старые тайны, она узнает, что ее окружение – муж, лучшая подруга, даже родной брат – совсем не те, кем она их считала. Она должна найти Олега во чтобы то ни стало! Она верит, что ещё возможно что-то исправить…

Качество: WEBRip
Видео: XviD build 73, 720x400 (16:9), 25.000 fps, ~ 1550 Kbps (~ 0.215 bit/pixel)
Аудио: 48.0 kHz, MP3, 2/0 ch, 192 kbps
Продолжительность: 8 x ~ 00:44:00
Перевод: Не требуется [Русский]
Cубтитры: нет

Релиз:
[+] MediaInfo
General
Complete name               : D:RazdachiRazbitoe.Zerkalo.2020.WEBRip.GeneralFilmE01.Razbitoe.Zerkalo.avi
Format                      : AVI
Format/Info                 : Audio Video Interleave
File size                   : 557 MiB
Duration                    : 44 min 29 s
Overall bit rate            : 1 750 kb/s
Writing application         : VirtualDubMod 1.5.10.3 | www.virtualdub-fr.org || (build 2550/release)
Writing library             : VirtualDubMod build 2550/release

Video
ID                          : 0
Format                      : MPEG-4 Visual
Format profile              : Advanced Simple@L5
Format settings             : BVOP1 / Custom Matrix
Format settings, BVOP       : 1
Format settings, QPel       : No
Format settings, GMC        : No warppoints
Format settings, Matrix     : Custom
Codec ID                    : XVID
Codec ID/Hint               : XviD
Duration                    : 44 min 29 s
Bit rate                    : 1 549 kb/s
Width                       : 720 pixels
Height                      : 400 pixels
Display aspect ratio        : 16:9
Frame rate                  : 25.000 FPS
Color space                 : YUV
Chroma subsampling          : 4:2:0
Bit depth                   : 8 bits
Scan type                   : Progressive
Compression mode            : Lossy
Bits/(Pixel*Frame)          : 0.215
Stream size                 : 493 MiB (88%)
Writing library             : XviD 73

Audio
ID                          : 1
Format                      : MPEG Audio
Format version              : Version 1
Format profile              : Layer 3
Codec ID                    : 55
Codec ID/Hint               : MP3
Duration                    : 44 min 29 s
Bit rate mode               : Constant
Bit rate                    : 192 kb/s
Channel(s)                  : 2 channels
Sampling rate               : 48.0 kHz
Frame rate                  : 41.667 FPS (1152 SPF)
Compression mode            : Lossy
Stream size                 : 61.1 MiB (11%)
Alignment                   : Aligned on interleaves
Interleave, duration        : 40  ms (1.00 video frame)
Interleave, preload duratio : 504  ms
Writing library             : LAME3.99r
Encoding settings           : -m s -V 4 -q 2 -lowpass 18.6 -b 192



Скриншоты:
[+] Всего файлов в раздаче - 8:
E01.Razbitoe.Zerkalo.avi557.02 MB
E02.Razbitoe.Zerkalo.avi556.90 MB
E03.Razbitoe.Zerkalo.avi556.61 MB
E04.Razbitoe.Zerkalo.avi556.94 MB
E05.Razbitoe.Zerkalo.avi556.98 MB
E06.Razbitoe.Zerkalo.avi557.11 MB
E07.Razbitoe.Zerkalo.avi557.38 MB
E08.Razbitoe.Zerkalo.avi557.18 MB

Показать еще раздачи по запросу разбитое:
2020-05-23 U Разбитое зеркало [01-08 из 08] (2020) HDTVRip-AVC от Files-x 5.55 GB ↑ 39 ↓ 21
2020-05-23 U Разбитое зеркало [01-08 из 08] (2020) HDTVRip 720p от ExKinoRay 1К9.35 GB ↑ 30 ↓ 26
2020-05-22 U Разбитое зеркало [01-08 из 08] (2020) HDTVRip от Files-x 4.56 GB ↑ 118 ↓ 97
2020-05-21 U Разбитое зеркало [01-08 из 08] (2020) SATRip-AVC 4.30 GB ↑ 40 ↓ 4
2020-05-21 U Разбитое зеркало [01-06 из 16] (2020) SATRip 3.51 GB ↑ 74 ↓ 101
2020-05-19 U Разбитое зеркало [01-04 из 16] (2020) SATRip 2.34 GB ↑ 219 ↓ 20
2020-05-19 U Разбитое зеркало [01-02 из 16] (2020) HDTVRip 720p от ExKinoRay 2.24 GB ↑ 46 ↓ 18

Отзывы
Зарегистрируйтесь чтобы добавить комментарий.
Обратная связь
Copyleft ©