↑↓torrent.by
Поиск
Логин: Регистрация
Пароль: Восстановить пароль

Катя и Блэк [01-08 из 08] (2020) WEBRip от GeneralFilm

Скачать katya-i-blek-01-08-iz-2020-webrip-ot-generalfilm.torrent
U Магнитная ссылка Размер: 4.35 GB Раздают: 80 Качают: 90 Добавлен: 2020-05-22 19:29:57
Катя и Блэк [01-08 из 08] (2020) WEBRip от GeneralFilm

Оригинальное название: Катя и Блэк
Год выпуска: 2020
Жанр:  Детектив
Выпущено: Россия, ООО «Студия 2В»
Режиссер: Гузэль Киреева
В ролях: Юлия Мельникова, Дмитрий Ратомский, Сергей Громов, Никита Абдулов, Марина Дровосекова, Армен Арушанян, Борис Щербаков, Маргарита Бугаева, Константин Милованов, Анатолий Голуб, Михаил Евланов, Владимир Кошевой, Владимир Юматов, Степан Абрамов, Александр Бобров, Александр Гунькин, Александр Красовский, Алёна Новицкая, Ян Хуснояров, Дэвид Аласания

О фильме: Капитан полиции Екатерина Шатрова, рискуя жизнью, помогает в поимке серийного убийцы Котова. Однако у преступника на свободе остался жестокий подельник, который начинает выслеживать Шатрову, чтобы отомстить. К счастью, Катю переводят в областной центр, где она возглавляет группу оперативников, состоящую из брутального капитана Андрея Веселова, интеллектуала Василия Савчука и эксперта-криминалиста Арины Соболь. Но, главное, что волею случая в жизни Кати появляется умный и самоотверженный пес по кличке Блэк. Обаятельный золотистый ретривер начинает помогать своей новой хозяйке в расследованиях. Вместе они раскрывают множество сложных дел, и каждый раз Блэк оказывается «на высоте», находя важные улики, выслеживая насильников, похитителей и убийц, а также охраняя Катину дочь Лизу… Но окажется ли Блэк рядом с Катей, когда ей самой понадобится помощь…

Качество: WEBRip
Видео: XviD build 73, 720x400 (16:9), 25.000 fps, ~ 1300 Kbps (~ 0.180 bit/pixel)
Аудио: 48.0 kHz, MP3, 2/0 ch, 192 kbps
Продолжительность: 8 x ~ 00:52:00
Перевод: Не требуется [Русский]
Cубтитры: нет

Релиз:
[+] MediaInfo
General
Complete name               : D:RazdachiKatya.I.Blek.2020.WEBRip.GeneralFilmE01.Katya.I.Blek.avi
Format                      : AVI
Format/Info                 : Audio Video Interleave
File size                   : 554 MiB
Duration                    : 51 min 53 s
Overall bit rate            : 1 494 kb/s
Writing application         : VirtualDubMod 1.5.10.3 | www.virtualdub-fr.org || (build 2550/release)
Writing library             : VirtualDubMod build 2550/release

Video
ID                          : 0
Format                      : MPEG-4 Visual
Format profile              : Advanced Simple@L5
Format settings             : BVOP1 / Custom Matrix
Format settings, BVOP       : 1
Format settings, QPel       : No
Format settings, GMC        : No warppoints
Format settings, Matrix     : Custom
Codec ID                    : XVID
Codec ID/Hint               : XviD
Duration                    : 51 min 53 s
Bit rate                    : 1 292 kb/s
Width                       : 720 pixels
Height                      : 400 pixels
Display aspect ratio        : 16:9
Frame rate                  : 25.000 FPS
Color space                 : YUV
Chroma subsampling          : 4:2:0
Bit depth                   : 8 bits
Scan type                   : Progressive
Compression mode            : Lossy
Bits/(Pixel*Frame)          : 0.179
Stream size                 : 480 MiB (86%)
Writing library             : XviD 73

Audio
ID                          : 1
Format                      : MPEG Audio
Format version              : Version 1
Format profile              : Layer 3
Codec ID                    : 55
Codec ID/Hint               : MP3
Duration                    : 51 min 53 s
Bit rate mode               : Constant
Bit rate                    : 192 kb/s
Channel(s)                  : 2 channels
Sampling rate               : 48.0 kHz
Frame rate                  : 41.667 FPS (1152 SPF)
Compression mode            : Lossy
Stream size                 : 71.3 MiB (13%)
Alignment                   : Aligned on interleaves
Interleave, duration        : 40  ms (1.00 video frame)
Interleave, preload duratio : 504  ms
Writing library             : LAME3.99r
Encoding settings           : -m s -V 4 -q 2 -lowpass 18.6 -b 192



Скриншоты:
[+] Всего файлов в раздаче - 8:
E01.Katya.I.Blek.avi554.44 MB
E02.Katya.I.Blek.avi557.68 MB
E03.Katya.I.Blek.avi557.65 MB
E04.Katya.I.Blek.avi557.52 MB
E05.Katya.I.Blek.avi557.50 MB
E06.Katya.I.Blek.avi557.51 MB
E07.Katya.I.Blek.avi557.45 MB
E08.Katya.I.Blek.avi557.52 MB

Показать еще раздачи по запросу катя:
2020-05-25 U ДАУ. Катя Таня / DAU. Katya Tanya (2020) WEB-DL 1080p 3.13 GB ↑ 197 ↓ 97
2020-05-22 U Катя и Блэк [01-08 из 08] (2020) HDTVRip от GeneralFilm 5.18 GB ↑ 82 ↓ 60
2020-05-21 U Катя и Блэк [01-08 из 08] (2018) SATRip-AVC 4.87 GB ↑ 39 ↓ 9
2020-05-21 U Катя и Блэк [01-07 из 08] (2020) HDTVRip от GeneralFilm 4.54 GB ↑ 40 ↓ 56
2020-05-20 U Катя и Блэк [01-06 из 08] (2020) HDTVRip от GeneralFilm 3.88 GB ↑ 27 ↓ 30
2020-05-19 U Катя и Блэк [01-05 из 08] (2020) HDTVRip от GeneralFilm 1К3.24 GB ↑ 27 ↓ 26
2020-05-13 U Катя и Блэк [01-02 из 08] (2020) HDTVRip от GeneralFilm 1.29 GB ↑ 33 ↓ 23

Отзывы
Зарегистрируйтесь чтобы добавить комментарий.
Обратная связь
Copyleft ©