↑↓torrent.by
Поиск
Логин: Регистрация
Пароль: Восстановить пароль

Лего Шазам: Магия и монстры / LEGO DC: Shazam - Magic & Monsters (2020) WEB-DL 1080p | Flarrow Films

Скачать lego-shazam-magiya-i-monstry-dc-magic-monsters-2020-web-dl-1080p-flarrow-films.torrent
U Магнитная ссылка Размер: 3.10 GB Раздают: 131 Качают: 34 Добавлен: 2020-05-22 19:30:09
Лего Шазам: Магия и монстры / LEGO DC: Shazam - Magic & Monsters (2020) WEB-DL 1080p | Flarrow Films

Название: Лего Шазам: Магия и монстры
Оригинальное название: LEGO DC: Shazam - Magic & Monsters
Год выхода: 2020
Жанр: мультфильм, фантастика, фэнтези, боевик, комедия, приключения, семейный
Режиссер: Мэтт Питерс
В ролях: Джонни Рис, Шон Эстин, Ди Брэдли Бейкер, Трой Бэйкер, Зак Каллисон, Ральф Гармен, Грэй Гриффин, Дженнифер Хейл, Том Кенни, Кристина Милиция

О фильме:
Мальчику супергерою Шазаму предлагают присоединиться к Лиге Справедливости, и поначалу он сомневается. Но когда враждебное Лиге Общество Монстров наносит удар, лишь Шазам может спасти своих новых друзей.

Страна: США
Продолжительность: 01:21:21
Перевод: Профессиональный (многоголосый, закадровый) | Flarrow Films

Роли озвучивали: Антон Алёхин, Евгений Леонов, Дмитрий Савкин, Ахилл Намазов, Алексей Ядренников, Семён Евсиков, Денис Кузьмичёв,  Анастасия Скачкова, Рина Чернышова и Дмитрий Кравченко.

Файл
Формат: MKV
Кодек: MPEG-4 AVC
Качество: WEB-DL 1080p
Видео: 1920х1078, ~ 5 134 kb/s, 23.976 FPS, 8 bits
Звук: AC-3, 320 kb/s, 2 channels, 48.0 kHz
Субтитры: отсутствуют

Релиз от: Flarrow Films
Примечание: Без интро Flarrow Films


[+] MediaInfo

General
Unique ID                   : 271022454764854572557508764873211645467 (0xCBE506B00431A3B0BEC4C2AA7E0E0E1B)
Complete name               : C:FlarrowLego.DC.Shazam.Magic.And.Monsters.2020.mkv
Format                      : Matroska
Format version              : Version 4
File size                   : 3.10 GiB
Duration                    : 1 h 21 min
Overall bit rate            : 5 455 kb/s
Movie name                  : Lego.DC.Shazam.Magic.And.Monsters.2020.1080p.WEB-DL.DD5.1.H264-FGT
Encoded date                : UTC 2020-05-22 07:36:26
Writing application         : mkvmerge v32.0.0 ('Astral Progressions') 64-bit
Writing library             : libebml v1.3.7 + libmatroska v1.5.0
Cover                       : Yes
Attachments                 : cover_land.jpg / small_cover.jpg / small_cover_land.jpg / cover.jpg

Video
ID                          : 1
Format                      : AVC
Format/Info                 : Advanced Video Codec
Format profile              : High@L4
Format settings             : CABAC / 4 Ref Frames
Format settings, CABAC      : Yes
Format settings, Reference  : 4 frames
Codec ID                    : V_MPEG4/ISO/AVC
Duration                    : 1 h 21 min
Bit rate                    : 5 134 kb/s
Width                       : 1 920 pixels
Height                      : 1 078 pixels
Display aspect ratio        : 16:9
Frame rate mode             : Constant
Frame rate                  : 23.976 (24000/1001) FPS
Color space                 : YUV
Chroma subsampling          : 4:2:0
Bit depth                   : 8 bits
Scan type                   : Progressive
Bits/(Pixel*Frame)          : 0.103
Stream size                 : 2.92 GiB (94%)
Title                       : Lego.DC.Shazam.Magic.And.Monsters.2020.1080p.WEB-DL.DD5.1.H264-FGT
Language                    : English
Default                     : Yes
Forced                      : No
Color range                 : Limited
Color primaries             : BT.709
Transfer characteristics    : BT.709
Matrix coefficients         : BT.709

Audio
ID                          : 2
Format                      : AC-3
Format/Info                 : Audio Coding 3
Commercial name             : Dolby Digital
Codec ID                    : A_AC3
Duration                    : 1 h 21 min
Bit rate mode               : Constant
Bit rate                    : 320 kb/s
Channel(s)                  : 2 channels
Channel layout              : L R
Sampling rate               : 48.0 kHz
Frame rate                  : 31.250 FPS (1536 SPF)
Compression mode            : Lossy
Delay relative to video     : -42 ms
Stream size                 : 186 MiB (6%)
Service kind                : Complete Main
Default                     : Yes
Forced                      : No



Скриншоты:
[+] Всего файлов в раздаче - 1:
Lego.DC.Shazam.Magic.And.Monsters.2020.mkv3.10 GB

Похожие раздачи по запросу - лего:
2019-06-04 U ЛЕГО Фильм-2 / The Lego Movie 2: The Second Part (2019) BDRip от MegaPeer | Лицензия 1.46 GB ↑ 744 ↓ 20
2019-05-02 U ЛЕГО Фильм-2 / The Lego Movie 2: The Second Part (2019) BDRip от MegaPeer | iTunes 1.41 GB ↑ 724 ↓ 29
2019-04-23 U ЛЕГО Фильм-2 / The Lego Movie 2: The Second Part (2019) HDRip | iTunes 2.14 GB ↑ 274 ↓ 19

Отзывы
Зарегистрируйтесь чтобы добавить комментарий.
Обратная связь
Copyleft ©