↑↓torrent.by
Поиск
Логин: Регистрация
Пароль: Восстановить пароль

Спутник (2020) WEB-DL 1080p | iTunes

Скачать sputnik-2020-web-dl-1080p-itunes.torrent
U Магнитная ссылка Размер: 3.96 GB Раздают: 119 Качают: 87 Добавлен: 2020-05-24 17:11:53
Спутник (2020) WEB-DL 1080p | iTunes

Название: Спутник
Год выхода: 2020
Жанр:  Фантастика, триллер, драма
Режиссер: Егор Абраменко
В ролях: Оксана Акиньшина, Пётр Фёдоров, Фёдор Бондарчук, Антон Васильев, Виталия Корниенко, Наталья Швец, Алексей Демидов, Александр Марушев, Альбрехт Зандер, Александр Шам, Павел Устинов, Анна Назарова

О фильме: СССР, 1983 год. На землю возвращается космический аппарат, но от людей скрывают, что из двух космонавтов живым возвращается только один. Что произошло на борту, остается загадкой, но факты указывают на то, что космонавты столкнулись с новой формой жизни и выживший вернулся не совсем один. На засекреченную военную базу, где космонавт Константин Вешняков содержится под строгим контролем и наблюдением, привозят нейрофизиолога Татьяну Климову, которая пытается докопаться до правды и спасти героя, ставшего для нее небезразличным.

Страна: Россия
Студия: Art Pictures Studio, «Водород», Hype Film
Продолжительность: 01:53:42
Перевод: Не  требуется | iTunes

Файл
Качество: WEB-DL 1080p
Контейнер: MKV
Видео: MPEG-4 AVC, 1920x806, 4596 Kbps, 24.000 fps
Аудио: Russian: AC3, 48.0 KHz, 6 ch, 384 kbps - iTunes
Субтитры: Нет

Релиз:


[+] MediaInfo
General
Unique ID                                : 187705530723781440689547841228258605274 (0x8D36C52E1BA8B03326978B77D7CEF8DA)
Complete name                            : SPUTNIK_2020_WEB-DL_1080p-BLUEBIRD.mkv
Format                                   : Matroska
Format version                           : Version 4 / Version 2
File size                                : 3.96 GiB
Duration                                 : 1 h 53 min
Overall bit rate                         : 4 982 kb/s
Movie name                               : SPUTNIK_2020_WEB-DL_1080p-BLUEBIRD
Encoded date                             : UTC 2020-05-23 17:20:19
Writing application                      : mkvmerge v43.0.0 ('The Quartermaster') 64-bit
Writing library                          : libebml v1.3.10 + libmatroska v1.5.2
Cover                                    : Yes
Attachments                              : cover.jpg

Video
ID                                       : 1
Format                                   : AVC
Format/Info                              : Advanced Video Codec
Format profile                           : High@L4
Format settings, CABAC                   : Yes
Format settings, RefFrames               : 5 frames
Format settings, GOP                     : N=1
Codec ID                                 : V_MPEG4/ISO/AVC
Duration                                 : 1 h 53 min
Bit rate                                 : 4 596 kb/s
Width                                    : 1 920 pixels
Height                                   : 806 pixels
Display aspect ratio                     : 2.40:1
Frame rate mode                          : Constant
Frame rate                               : 24.000 FPS
Color space                              : YUV
Chroma subsampling                       : 4:2:0
Bit depth                                : 8 bits
Scan type                                : Progressive
Bits/(Pixel*Frame)                       : 0.124
Stream size                              : 3.65 GiB (92%)
Language                                 : English
Default                                  : Yes
Forced                                   : No
Color range                              : Limited
Color primaries                          : BT.709
Transfer characteristics                 : BT.709
Matrix coefficients                      : BT.709

Audio
ID                                       : 2
Format                                   : AC-3
Format/Info                              : Audio Coding 3
Format settings, Endianness              : Big
Codec ID                                 : A_AC3
Duration                                 : 1 h 53 min
Bit rate mode                            : Constant
Bit rate                                 : 384 kb/s
Channel(s)                               : 6 channels
Channel positions                        : Front: L C R, Side: L R, LFE
Sampling rate                            : 48.0 kHz
Frame rate                               : 31.250 FPS (1536 SPF)
Bit depth                                : 16 bits
Compression mode                         : Lossy
Stream size                              : 312 MiB (8%)
Title                                    : [ORIGINAL] DD 5.1 @ 384 kbps (iTunes)
Language                                 : Russian
Service kind                             : Complete Main
Default                                  : Yes
Forced                                   : No

Menu
00:00:00.000                             : en:Глава 1
00:07:56.000                             : en:Глава 2
00:16:07.125                             : en:Глава 3
00:25:32.208                             : en:Глава 4
00:34:06.291                             : en:Глава 5
00:43:06.332                             : en:Глава 6
00:51:42.040                             : en:Глава 7
01:00:47.498                             : en:Глава 8
01:08:56.998                             : en:Глава 9
01:17:25.581                             : en:Глава 10
01:27:14.206                             : en:Глава 11
01:35:43.581                             : en:Глава 12



Скриншоты:
[+] Всего файлов в раздаче - 1:
SPUTNIK_2020_WEB-DL_1080p-BLUEBIRD.mkv3.96 GB

Показать еще раздачи по запросу спутник:
2020-06-20 U Спутник (2020) WEB-DLRip-AVC от Scarabey | iTunes 2.16 GB ↑ 67 ↓ 9
2020-05-31 U Спутник (2020) WEB-DLRip от Scarabey | iTunes 1.49 GB ↑ 57 ↓ 18
2020-05-25 U Спутник (2020) WEB-DLRip | iTunes 744.92 MB ↑ 37 ↓ 13
2020-05-25 U Спутник (2020) WEB-DLRip от MegaPeer | iTunes 1.44 GB ↑ 102 ↓ 26
2020-04-25 U Спутник (2020) WEB-DLRip от Scarabey 1.47 GB ↑ 192 ↓ 34
2020-04-24 U Спутник (2020) WEB-DLRip 748.04 MB ↑ 127 ↓ 24
2020-04-24 U Спутник (2020) WEB-DLRip-AVC от Files-х 1.46 GB ↑ 280 ↓ 63

Отзывы
Зарегистрируйтесь чтобы добавить комментарий.
Загрузите программу
  uTorrent.exe
Обратная связь
Copyleft ©