↑↓torrent.by
Поиск
Логин: Регистрация
Пароль: Восстановить пароль

Пила: Начало / Alive (2018) WEB-DL 1080p | iTunes

Скачать pila-nachalo-alive-2018-web-dl-1080p-itunes.torrent
U Магнитная ссылка Размер: 3.03 GB Раздают: 393 Качают: 149 Добавлен: 2020-05-28 18:03:11
Пила: Начало / Alive (2018) WEB-DL 1080p | iTunes

Название: Пила: Начало
Оригинальное название: Alive
Год выпуска: 2018
Жанр:  Ужасы, триллер
Режиссер: Роб Грант
В ролях: Томас Кокерел, Камилла Стоппс, Энгус Макфадьен, Чантал Перрон, Геррик Уинстон, Зои Марлетт, Лиза Моро

О фильме: Тяжело раненые девушка и парень приходят в себя посреди заброшенной психиатрической лечебницы. Они не помнят ни того, как оказались здесь, ни друг друга, ни даже самих себя. И ответы на все вопросы есть лишь у одного человека — садиста-похитителя, который не намерен просто так отпускать своих новых пациентов.

Страна: Канада
Студия: 775 Media Corp, Vamanos Films
Продолжительность: 01:27:45
Перевод: Профессиональный (многоголосый, закадровый) | iTunes

Файл
Качество: WEB-DL 1080p
Контейнер: MKV
Видео: MPEG-4 AVC, 1920x802, 4554 Kbps, 25.000 fps
Аудио: Russian: AC3, 48.0 KHz, 6 ch, 384 kbps - iTunes
Субтитры: Нет

Релиз:


[+] Знаете ли вы, что...
Оригинальное название переводится как «Живые» и фильм не имеет отношения к франшизе «Пила».



[+] MediaInfo
General
Unique ID                                : 192103322624573344200814663222300336934 (0x9085C10FB4927A9BE18DF421B2E96326)
Complete name                            : ALIVE_2018_WEB-DL_1080p-BLUEBIRD.mkv
Format                                   : Matroska
Format version                           : Version 4 / Version 2
File size                                : 3.03 GiB
Duration                                 : 1 h 27 min
Overall bit rate                         : 4 941 kb/s
Encoded date                             : UTC 2020-05-27 18:15:16
Writing application                      : mkvmerge v43.0.0 ('The Quartermaster') 64-bit
Writing library                          : libebml v1.3.10 + libmatroska v1.5.2
Cover                                    : Yes
Attachments                              : cover.jpg

Video
ID                                       : 1
Format                                   : AVC
Format/Info                              : Advanced Video Codec
Format profile                           : High@L4
Format settings, CABAC                   : Yes
Format settings, RefFrames               : 5 frames
Codec ID                                 : V_MPEG4/ISO/AVC
Duration                                 : 1 h 27 min
Bit rate                                 : 4 554 kb/s
Width                                    : 1 920 pixels
Height                                   : 802 pixels
Display aspect ratio                     : 2.40:1
Frame rate mode                          : Constant
Frame rate                               : 25.000 FPS
Color space                              : YUV
Chroma subsampling                       : 4:2:0
Bit depth                                : 8 bits
Scan type                                : Progressive
Bits/(Pixel*Frame)                       : 0.118
Stream size                              : 2.79 GiB (92%)
Language                                 : English
Default                                  : Yes
Forced                                   : No
Color range                              : Limited
Color primaries                          : BT.709
Transfer characteristics                 : BT.709
Matrix coefficients                      : BT.709

Audio
ID                                       : 2
Format                                   : AC-3
Format/Info                              : Audio Coding 3
Format settings, Endianness              : Big
Codec ID                                 : A_AC3
Duration                                 : 1 h 27 min
Bit rate mode                            : Constant
Bit rate                                 : 384 kb/s
Channel(s)                               : 6 channels
Channel positions                        : Front: L C R, Side: L R, LFE
Sampling rate                            : 48.0 kHz
Frame rate                               : 31.250 FPS (1536 SPF)
Bit depth                                : 16 bits
Compression mode                         : Lossy
Stream size                              : 241 MiB (8%)
Title                                    : [MVO] DD 5.1 @ 384 kbps (iTunes)
Language                                 : Russian
Service kind                             : Complete Main
Default                                  : Yes
Forced                                   : No

Menu
00:00:00.000                             : en:Глава 1
00:08:37.600                             : en:Глава 2
00:16:41.200                             : en:Глава 3
00:24:48.960                             : en:Глава 4
00:33:17.520                             : en:Глава 5
00:41:32.960                             : en:Глава 6
00:49:45.320                             : en:Глава 7
00:57:49.640                             : en:Глава 8
01:06:08.920                             : en:Глава 9
01:14:17.840                             : en:Глава 10



Скриншоты:
[+] Всего файлов в раздаче - 1:
ALIVE_2018_WEB-DL_1080p-BLUEBIRD.mkv3.03 GB

Похожие раздачи по запросу - пила:
2020-05-29 U Пила: Начало / Alive (2018) WEB-DLRip от Portablius | iTunes 745.89 MB ↑ 104 ↓ 13
2020-05-28 U Пила: Начало / Alive (2019) WEB-DLRip | iTunes 1.46 GB ↑ 144 ↓ 78

Отзывы
Зарегистрируйтесь чтобы добавить комментарий.
Обратная связь
Copyleft ©