↑↓torrent.by
Поиск
Логин: Регистрация
Пароль: Восстановить пароль

Переводчики / Les traducteurs (2019) WEB-DL 1080p | iTunes

Скачать perevodchiki-les-traducteurs-2019-web-dl-1080p-itunes.torrent
U Магнитная ссылка Размер: 3.64 GB Раздают: 279 Качают: 123 Добавлен: 2020-05-29 08:15:09
Переводчики / Les traducteurs (2019) WEB-DL 1080p | iTunes

Название: Переводчики
Оригинальное название: Les traducteurs
Год выхода: 2019
Цифровой релиз (в России): 28 мая 2020
Жанр: триллер
Режиссер: Режис Руансар
В ролях: Ламбер Вильсон, Ольга Куриленко, Риккардо Скамарчо, Сидсе Бабетт Кнудсен, Эдуардо Норьега, Алекс Лоутер, Анна Мария Штурм, Фредерик Шо, Мария Лейте, Манолис Мавроматакис

О фильме:
Девять переводчиков работают в секретном бункере над последней частью самого нашумевшего бестселлера. Их изолировали, чтобы не допустить утечки ожидаемой новинки в интернет. Но она все-таки произошла…

 
Страна: Франция, Бельгия
Продолжительность: 01:45:05
Перевод: Дублированный | iTunes

Файл
Формат: MKV
Кодек: MPEG-4 AVC
Качество: WEB-DL 1080p
Видео: 1908x792, ~ 4 571 kb/s, 8 bits, 23.976 FPS
Аудио #1 (русский): AC-3, 384 kb/s, 6 ch (L R C LFE Ls Rs), 48.0 kHz
Субтитры: отсутствуют
Навигация по главам: есть


[+] MediaInfo

General
Unique ID                   : 278107086013641692870897990377386836849 (0xD13979F9F005B0E571EA463D9F348371)
Complete name               : [KORSARS]_Les.traducteurs.WEB-DL.1080p.iTunes.mkv
Format                      : Matroska
Format version              : Version 4
File size                   : 3.64 GiB
Duration                    : 1 h 45 min
Overall bit rate            : 4 957 kb/s
Movie name                  : [KORSARS]_Les.traducteurs.WEB-DL.1080p
Encoded date                : UTC 2020-05-28 19:38:30
Writing application         : mkvmerge v45.0.0 ('Heaven in Pennies') 64-bit
Writing library             : libebml v1.3.10 + libmatroska v1.5.2

Video
ID                          : 1
Format                      : AVC
Format/Info                 : Advanced Video Codec
Format profile              : High@L4
Format settings             : CABAC / 5 Ref Frames
Format settings, CABAC      : Yes
Format settings, Reference  : 5 frames
Codec ID                    : V_MPEG4/ISO/AVC
Duration                    : 1 h 45 min
Bit rate                    : 4 571 kb/s
Width                       : 1 908 pixels
Height                      : 792 pixels
Display aspect ratio        : 2.40:1
Frame rate mode             : Constant
Frame rate                  : 23.976 (24000/1001) FPS
Color space                 : YUV
Chroma subsampling          : 4:2:0
Bit depth                   : 8 bits
Scan type                   : Progressive
Bits/(Pixel*Frame)          : 0.126
Stream size                 : 3.35 GiB (92%)
Language                    : Russian
Default                     : Yes
Forced                      : No
Color range                 : Limited
Color primaries             : BT.709
Transfer characteristics    : BT.709
Matrix coefficients         : BT.709

Audio
ID                          : 2
Format                      : AC-3
Format/Info                 : Audio Coding 3
Commercial name             : Dolby Digital
Codec ID                    : A_AC3
Duration                    : 1 h 45 min
Bit rate mode               : Constant
Bit rate                    : 384 kb/s
Channel(s)                  : 6 channels
Channel layout              : L R C LFE Ls Rs
Sampling rate               : 48.0 kHz
Frame rate                  : 31.250 FPS (1536 SPF)
Compression mode            : Lossy
Delay relative to video     : -42 ms
Stream size                 : 289 MiB (8%)
Language                    : Russian
Service kind                : Complete Main
Default                     : Yes
Forced                      : No

Menu
00:00:00.000                : ru:1
00:06:41.000                : ru:2
00:13:47.000                : ru:3
00:22:30.000                : ru:4
00:34:24.000                : ru:5
00:44:48.000                : ru:6
00:51:27.000                : ru:7
01:00:51.000                : ru:8
01:10:16.000                : ru:9
01:18:05.000                : ru:10
01:28:57.000                : ru:11
01:40:01.000                : ru:12



Скриншоты:
[+] Всего файлов в раздаче - 1:
[KORSARS]_Les.traducteurs.WEB-DL.1080p.iTunes.mkv3.64 GB

Похожие раздачи по запросу - переводчики:
2020-06-13 U Переводчики / Les traducteurs (2019) BDRip от Scarabey | iTunes 1.40 GB ↑ 180 ↓ 17
2020-06-12 U Переводчики / Les traducteurs (2019) BDRip от MegaPeer | iTunes 1.46 GB ↑ 58 ↓ 35
2020-06-12 U Переводчики / Les traducteurs (2019) BDRip 720p от селезень | iTunes 4.24 GB ↑ 89 ↓ 39
2020-06-12 U Переводчики / Les traducteurs (2019) BDRip 1080p от селезень | iTunes 8.27 GB ↑ 209 ↓ 63
2020-05-29 U Переводчики / Les traducteurs (2019) WEB-DLRip-AVC | iTunes 745.40 MB ↑ 87 ↓ 33
2020-05-29 U Переводчики / Les traducteurs (2019) WEB-DLRip от MegaPeer | iTunes 1.46 GB ↑ 213 ↓ 91

Отзывы
Зарегистрируйтесь чтобы добавить комментарий.
Обратная связь
Copyleft ©