↑↓torrent.by
Поиск
Логин: Регистрация
Пароль: Восстановить пароль

Переводчики / Les traducteurs (2019) WEB-DLRip-AVC | iTunes

Скачать perevodchiki-les-traducteurs-2019-web-dlrip-avc-itunes.torrent
U Магнитная ссылка Размер: 745.40 MB Раздают: 87 Качают: 33 Добавлен: 2020-05-29 18:39:59
Переводчики / Les traducteurs (2019) WEB-DLRip-AVC | iTunes

Название: Переводчики
Оригинальное название: Les traducteurs
Год выпуска: 2019
Жанр:  Триллер
Режиссер: Режис Руансар
В ролях: Ламбер Вильсон, Ольга Куриленко, Риккардо Скамарчо, Сидсе Бабетт Кнудсен, Эдуардо Норьега, Алекс Лоутер, Анна Мария Штурм, Фредерик Шо, Мария Лейте, Манолис Мавроматакис

О фильме:
Девять переводчиков работают в секретном бункере над последней частью самого нашумевшего бестселлера. Их изолировали, чтобы не допустить утечки ожидаемой новинки в интернет. Но она все-таки произошла...

Страна: Франция, Бельгия
Продолжительность: 01:45:05
Перевод: Дублированный | iTunes
Субтитры: Нет

Файл
Формат: Matroska
Качество: WEB-DLRip-AVC
Видео: 742x308 at 23.976 fps, x264, ~926 kbps, 0.169 bpp
Аудио: AAC, 2 ch, ~64 kbps - | Русский | -
Навигация по главам: есть

***Релиз от: -=DoMiNo=-


[+] M/I
x264 [info]: frame I:1443  Avg QP:13.54  size: 34185
x264 [info]: frame P:34996 Avg QP:16.45  size: 10148
x264 [info]: frame B:114736 Avg QP:18.20  size:  2831
x264 [info]: consecutive B-frames:  2.0%  2.5%  4.9% 48.0% 12.7% 22.3%  4.1%  2.0%  0.7%  0.8%

General
Format                      : Matroska
Format version              : Version 4
File size                   : 745 MiB
Duration                    : 1 h 45 min
Overall bit rate            : 992 kb/s
Movie name                  : Переводчики.(2019).WEB-DLRip-AVC.[-=DoMiNo=-]
Encoded date                : UTC 2020-05-29 13:43:46
Writing application         : mkvmerge v46.0.0 ('No Deeper Escape') 64-bit
Writing library             : libebml v1.3.10 + libmatroska v1.5.2
Cover                       : Yes
Attachments                 : cover.png / cover 2.jpg

Video
ID                          : 1
Format                      : AVC
Format/Info                 : Advanced Video Codec
Format profile              : High@L4.1
Format settings             : CABAC / 12 Ref Frames
Format settings, CABAC      : Yes
Format settings, Reference  : 12 frames
Codec ID                    : V_MPEG4/ISO/AVC
Duration                    : 1 h 45 min
Bit rate                    : 926 kb/s
Width                       : 742 pixels
Height                      : 308 pixels
Display aspect ratio        : 2.40:1
Frame rate mode             : Constant
Frame rate                  : 23.976 (24000/1001) FPS
Color space                 : YUV
Chroma subsampling          : 4:2:0
Bit depth                   : 8 bits
Scan type                   : Progressive
Bits/(Pixel*Frame)          : 0.169
Stream size                 : 696 MiB (93%)
Title                       : RIP BY -=DoMiNo=-
Writing library             : x264 core 160 r3000 33f9e14
Encoding settings           : cabac=1 / ref=12 / deblock=1:-3:-2 / analyse=0x3:0x133 / me=umh / subme=10 / psy=1 / psy_rd=1.05:0.15 / mixed_ref=1 / me_range=32 / chroma_me=1 / trellis=2 / 8x8dct=1 / cqm=0 / deadzone=21,11 / fast_pskip=0 / chroma_qp_offset=-3 / threads=6 / lookahead_threads=1 / sliced_threads=0 / nr=0 / decimate=0 / interlaced=0 / bluray_compat=0 / constrained_intra=0 / bframes=9 / b_pyramid=2 / b_adapt=2 / b_bias=0 / direct=3 / weightb=1 / open_gop=0 / weightp=2 / keyint=250 / keyint_min=23 / scenecut=40 / intra_refresh=0 / rc_lookahead=60 / rc=2pass / mbtree=0 / bitrate=926 / ratetol=1.0 / qcomp=0.60 / qpmin=0 / qpmax=69 / qpstep=4 / cplxblur=20.0 / qblur=0.5 / vbv_maxrate=50000 / vbv_bufsize=62500 / nal_hrd=none / filler=0 / ip_ratio=1.40 / pb_ratio=1.30 / aq=3:0.80
Language                    : English
Default                     : Yes
Forced                      : No
Color range                 : Limited
Color primaries             : BT.709
Transfer characteristics    : BT.709
Matrix coefficients         : BT.709

Audio
ID                          : 2
Format                      : AAC LC SBR
Format/Info                 : Advanced Audio Codec Low Complexity with Spectral Band Replication
Commercial name             : HE-AAC
Format settings             : Implicit
Codec ID                    : A_AAC-2
Duration                    : 1 h 45 min
Bit rate                    : 64.0 kb/s
Channel(s)                  : 2 channels
Channel layout              : L R
Sampling rate               : 48.0 kHz
Frame rate                  : 23.438 FPS (2048 SPF)
Compression mode            : Lossy
Stream size                 : 48.1 MiB (6%)
Title                       : DUB
Language                    : Russian
Default                     : Yes
Forced                      : No

Menu
00:00:00.000                : ru:1
00:06:41.000                : ru:2
00:13:47.000                : ru:3
00:22:30.000                : ru:4
00:34:24.000                : ru:5
00:44:48.000                : ru:6
00:51:27.000                : ru:7
01:00:51.000                : ru:8
01:10:16.000                : ru:9
01:18:05.000                : ru:10
01:28:57.000                : ru:11
01:40:01.000                : ru:12



Скриншоты:
[+] Всего файлов в раздаче - 1:
Переводчики.(2019).WEB-DLRip-AVC.[-=DoMiNo=-].mkv745.40 MB

Похожие раздачи по запросу - переводчики:
2020-06-13 U Переводчики / Les traducteurs (2019) BDRip от Scarabey | iTunes 1.40 GB ↑ 180 ↓ 17
2020-06-12 U Переводчики / Les traducteurs (2019) BDRip от MegaPeer | iTunes 1.46 GB ↑ 58 ↓ 35
2020-06-12 U Переводчики / Les traducteurs (2019) BDRip 720p от селезень | iTunes 4.24 GB ↑ 89 ↓ 39
2020-06-12 U Переводчики / Les traducteurs (2019) BDRip 1080p от селезень | iTunes 8.27 GB ↑ 209 ↓ 63
2020-05-29 U Переводчики / Les traducteurs (2019) WEB-DLRip от MegaPeer | iTunes 1.46 GB ↑ 213 ↓ 91
2020-05-29 U Переводчики / Les traducteurs (2019) WEB-DL 1080p | iTunes 3.64 GB ↑ 279 ↓ 123

Отзывы
Зарегистрируйтесь чтобы добавить комментарий.
Обратная связь
Copyleft ©