↑↓torrent.by
Поиск
Логин: Регистрация
Пароль: Восстановить пароль

Аванпост (2019) BDRip-HEVC 1080p | Лицензия

Скачать avanpost-2019-bdrip-hevc-1080p-licenziya.torrent
U Магнитная ссылка Размер: 6.81 GB Раздают: 90 Качают: 32 Добавлен: 2020-05-30 04:44:15
Аванпост (2019) BDRip-HEVC 1080p | Лицензия

Название: Аванпост
Год выхода: 2019
Жанр: Триллер, фантастика, боевик
Режиссер: Егор Баранов
В ролях: Лукерья Ильяшенко, Пётр Фёдоров, Светлана Иванова, Алексей Чадов, Ксения Кутепова, Константин Лавроненко, Филипп Авдеев, Артем Маркарьян, Сергей Годин, Артем Ткаченко

О фильме:
В недалеком будущем что-то произошло. Связь с большей частью населенных пунктов Земли оборвалась. Космонавты передали с орбиты, что видят сверху небольшое пятно в Восточной Европе, по своим очертаниям напоминающее круг. То, что военные находят за границей этого круга, шокирует. В магазинах, в автомобилях, на дорогах, в зданиях больниц и вокзалов, повсюду — следы столкновений. Кто или что уничтожает все живое? И как долго продержится последний аванпост человечества?

Страна: Россия
Студия: «1-2-3 Production», «TNT-Premier», Канал «ТВ-3»
Продолжительность: 02:07:29
Перевод: Не требуется

Файл
Кодек: H.265
Качество: BDRip-HEVC 1080p | BDRemux |
Видео: HEVC, 1920x804 (2.40:1), 23,976 fps, 6558 kb/s
Аудио 1: AC3, 48.0 kHz, 6 ch, 640 kb/s | RUS
Аудио 2: AC3, 48.0 kHz, 6 ch, 448 kb/s | ENG
Субтитры: Русские (форс.)


[+] ОтчетМедиаИнфо
Общее
Уникальный идентификатор                 : 166751069897461581616730017373233232830 (0x7D73167F2257013A4E504179022E3BBE)
Полное имя                               : The Blackout 2019 .BDRip.1080p. HEVC.Lic.mkv
Формат                                   : Matroska
Версия формата                           : Version 4 / Version 2
Размер файла                             : 6,81 Гбайт
Продолжительность                        : 2 ч. 7 м.
Общий поток                              : 7648 Кбит/сек
Название фильма                          : The Blackout 2019 from mikos1
Дата кодирования                         : UTC 2020-05-29 15:37:08
Программа кодирования                    : mkvmerge v43.0.0 ('The Quartermaster') 64-bit
Библиотека кодирования                   : libebml v1.3.10 + libmatroska v1.5.2

Видео
Идентификатор                            : 1
Формат                                   : HEVC
Формат/Информация                        : High Efficiency Video Coding
Профиль формата                          : Main 10@L4.1@High
Идентификатор кодека                     : V_MPEGH/ISO/HEVC
Продолжительность                        : 2 ч. 7 м.
Битрейт                                  : 6558 Кбит/сек
Ширина                                   : 1920 пикселей
Высота                                   : 804 пикселя
Соотношение сторон                       : 2,40:1
Режим частоты кадров                     : Постоянный
Частота кадров                           : 23,976 (24000/1001) кадра/сек
Цветовое пространство                    : YUV
Субдискретизация насыщенности            : 4:2:0
Битовая глубина                          : 10 бит
Бит/(Пиксели*Кадры)                      : 0.177
Размер потока                            : 5,84 Гбайт (86%)
Библиотека кодирования                   : x265 3.2+5-354901970679:[Windows][clang 8.0.1][64 bit] 10bit
Настройки программы                      : cpuid=1111039 / frame-threads=13 / numa-pools=12 / wpp / no-pmode / no-pme / no-psnr / no-ssim / log-level=3 / input-csp=1 / input-res=1920x804 / interlace=0 / total-frames=0 / level-idc=41 / high-tier=1 / uhd-bd=0 / ref=5 / allow-non-conformance / no-repeat-headers / annexb / no-aud / no-hrd / info / hash=0 / no-temporal-layers / open-gop / min-keyint=24 / keyint=240 / gop-lookahead=0 / bframes=14 / b-adapt=2 / b-pyramid / bframe-bias=0 / rc-lookahead=50 / lookahead-slices=5 / scenecut=50 / radl=0 / no-splice / no-intra-refresh / ctu=32 / min-cu-size=8 / no-rect / no-amp / max-tu-size=32 / tu-inter-depth=1 / tu-intra-depth=1 / limit-tu=0 / rdoq-level=0 / dynamic-rd=0.00 / no-ssim-rd / signhide / no-tskip / nr-intra=0 / nr-inter=0 / no-constrained-intra / strong-intra-smoothing / max-merge=3 / limit-refs=1 / no-limit-modes / me=2 / subme=7 / merange=57 / temporal-mvp / no-frame-dup / no-hme / weightp / weightb / no-analyze-src-pics / deblock=-3:-3 / sao / no-sao-non-deblock / rd=3 / selective-sao=4 / no-early-skip / rskip / no-fast-intra / no-tskip-fast / no-cu-lossless / b-intra / no-splitrd-skip / rdpenalty=0 / psy-rd=2.00 / psy-rdoq=0.00 / no-rd-refine / no-lossless / cbqpoffs=0 / crqpoffs=0 / rc=crf / crf=15.5 / qcomp=0.65 / qpstep=4 / stats-write=0 / stats-read=0 / vbv-maxrate=50000 / vbv-bufsize=50000 / vbv-init=0.9 / crf-max=30.0 / crf-min=0.0 / ipratio=1.40 / pbratio=1.30 / aq-mode=2 / aq-strength=1.00 / cutree / zone-count=0 / no-strict-cbr / qg-size=32 / no-rc-grain / qpmax=69 / qpmin=0 / no-const-vbv / sar=1 / overscan=0 / videoformat=5 / range=0 / colorprim=2 / transfer=2 / colormatrix=2 / chromaloc=0 / display-window=0 / cll=0,0 / min-luma=0 / max-luma=1023 / log2-max-poc-lsb=8 / vui-timing-info / vui-hrd-info / slices=1 / no-opt-qp-pps / no-opt-ref-list-length-pps / no-multi-pass-opt-rps / scenecut-bias=0.05 / no-opt-cu-delta-qp / no-aq-motion / no-hdr / no-hdr-opt / no-dhdr10-opt / no-idr-recovery-sei / analysis-reuse-level=5 / scale-factor=0 / refine-intra=0 / refine-inter=0 / refine-mv=1 / refine-ctu-distortion=0 / no-limit-sao / ctu-info=0 / no-lowpass-dct / refine-analysis-type=0 / copy-pic=1 / max-ausize-factor=1.0 / no-dynamic-refine / no-single-sei / no-hevc-aq / no-svt / no-field / qp-adaptation-range=1.00
Язык                                     : English
Default                                  : Да
Forced                                   : Нет
Цветовой диапазон                        : Limited

Аудио #1
Идентификатор                            : 2
Формат                                   : AC-3
Формат/Информация                        : Audio Coding 3
Идентификатор кодека                     : A_AC3
Продолжительность                        : 2 ч. 7 м.
Вид битрейта                             : Постоянный
Битрейт                                  : 640 Кбит/сек
Каналы                                   : 6 каналов
Расположение каналов                     : Front: L C R, Side: L R, LFE
Частота                                  : 48,0 КГц
Частота кадров                           : 31,250 кадров/сек (1536 SPF)
Битовая глубина                          : 16 бит
Метод сжатия                             : С потерями
Размер потока                            : 584 Мбайт (8%)
Язык                                     : Russian
Default                                  : Да
Forced                                   : Нет

Аудио #2
Идентификатор                            : 3
Формат                                   : AC-3
Формат/Информация                        : Audio Coding 3
Идентификатор кодека                     : A_AC3
Продолжительность                        : 2 ч. 7 м.
Вид битрейта                             : Постоянный
Битрейт                                  : 448 Кбит/сек
Каналы                                   : 6 каналов
Расположение каналов                     : Front: L C R, Side: L R, LFE
Частота                                  : 48,0 КГц
Частота кадров                           : 31,250 кадров/сек (1536 SPF)
Битовая глубина                          : 16 бит
Метод сжатия                             : С потерями
Размер потока                            : 409 Мбайт (6%)
Язык                                     : English
Default                                  : Нет
Forced                                   : Нет

Текст
Идентификатор                            : 4
Формат                                   : UTF-8
Идентификатор кодека                     : S_TEXT/UTF8
Идентификатор кодека/Информация          : UTF-8 Plain Text
Продолжительность                        : 42 м. 6 с.
Битрейт                                  : 2 бит/сек
ElementCount                             : 15
Размер потока                            : 790 байт (0%)
Заголовок                                : Forced
Язык                                     : Russian
Default                                  : Да
Forced                                   : Нет

Меню
00:00:00.000                             : en:Chapter 01
00:09:30.278                             : en:Chapter 02
00:19:34.423                             : en:Chapter 03
00:29:52.666                             : en:Chapter 04
00:40:16.581                             : en:Chapter 05
00:50:11.342                             : en:Chapter 06
01:01:00.031                             : en:Chapter 07
01:10:54.876                             : en:Chapter 08
01:22:56.471                             : en:Chapter 09
01:34:43.511                             : en:Chapter 10
01:46:17.329                             : en:Chapter 11
02:04:02.727                             : en:Chapter 12



Скриншоты:
[+] Всего файлов в раздаче - 1:
The Blackout 2019 .BDRip.1080p. HEVC.Lic.mkv6.81 GB

Показать еще раздачи по запросу аванпост:
2020-06-24 U Аванпост (2019) BDRip-HEVC 1080p | 60 fps | Лицензия 13.07 GB ↑ 23 ↓ 6
2020-06-14 U Аванпост (2020) BDRip 1080p от HELLYWOOD | Лицензия 11.18 GB ↑ 82 ↓ 56
2020-06-01 U Аванпост (2019) BDRip-HEVC 1080p от KORSAR | Лицензия 7.19 GB ↑ 93 ↓ 32
2020-05-31 U Аванпост (2019) BDRip от Twister & ExKinoRay | Лицензия 1.46 GB ↑ 71 ↓ 9
2020-05-29 U Аванпост (2019) BDRip-AVC от ExKinoRay | Лицензия 2.00 GB ↑ 117 ↓ 35
2020-05-29 U Аванпост (2019) BDRip от Twister & ExKinoRay | Лицензия 2.18 GB ↑ 92 ↓ 11
2020-05-29 U Аванпост (2019) BDRip от GeneralFilm | Лицензия 1.46 GB ↑ 54 ↓ 28

Отзывы
Зарегистрируйтесь чтобы добавить комментарий.
Обратная связь
Copyleft ©