↑↓torrent.by
Поиск
Логин: Регистрация
Пароль: Восстановить пароль

Ночная жизнь / Nightlife (2020) WEB-DL 720p | iTunes

Скачать nochnaya-zhizn-nightlife-2020-web-dl-720p-itunes.torrent
U Магнитная ссылка Размер: 3.55 GB Раздают: 128 Качают: 30 Добавлен: 2020-05-31 05:22:13
Ночная жизнь / Nightlife (2020) WEB-DL 720p | iTunes

Название: Ночная жизнь
Оригинальное название: Nightlife
Год выхода: 2020
Жанр: Мелодрама, комедия
Страна: Германия
Перевод: Профессиональный (многоголосый закадровый) | iTunes
Продолжительность: 01:55:14
Режиссер: Симон Ферхоэвен
В ролях: Элиас ЭмБарек, Джулиан Лооман, Фредерик Лау, Каро Культ, Николас Офчарек, Кристина ду Рего, Симон Ферхоэвен, Полина Рожински, Милена Драйсиг, Стефан Хорнунг и др.

О фильме: Когда двум друзьям-барменам отказывают в кредите на открытие собственного ночного клуба, они пытаются найти другие способы достать деньги. После одной такой неудачной попытки местная мафия ставит им условие: вернуть кругленькую сумму к полудню следующего дня — или они покойники. По стечению обстоятельств именно на этот вечер у одного из друзей назначено свидание с девушкой его мечты, которое он никак не может отменить. Теперь два друга должны придумать, как не оставить девушку без внимания, при этом остаться в живых к полудню следующего дня.

Файл
Качество: WEB-DL 720p
Видео: MPEG-4 AVC, 1280x536, 4020 kbps, 24,000 fps
Звук: русский, AC3, 5.1 ch, 48 kHz, 384 kbps | iTunes
Субтитры: нет

Релиз:


[+] MI
Общее
Уникальный идентификатор                 : 243466972452441184790700751281081481704 (0xB72A08847BE969EF9E3AC0E55B5AF9E8)
Полное имя                               : C:UtorrentNochnayaZhiznWEBDL720p.mkv
Формат                                   : Matroska
Версия формата                           : Version 4 / Version 2
Размер файла                             : 3,55 Гбайт
Продолжительность                        : 1 ч. 55 м.
Общий поток                              : 4406 Кбит/сек
Дата кодирования                         : UTC 2020-05-30 13:49:15
Программа кодирования                    : mkvmerge v9.5.0 ('Quiet Fire') 64bit
Библиотека кодирования                   : libebml v1.3.4 + libmatroska v1.4.5

Видео
Идентификатор                            : 1
Формат                                   : AVC
Формат/Информация                        : Advanced Video Codec
Профиль формата                          : Main@L3.1
Настройки формата                        : 2 Ref Frames
Параметр CABAC формата                   : Нет
Параметр RefFrames формата               : 2 кадра
Параметр GOP формата                     : N=1
Идентификатор кодека                     : V_MPEG4/ISO/AVC
Продолжительность                        : 1 ч. 55 м.
Битрейт                                  : 4020 Кбит/сек
Ширина                                   : 1280 пикселей
Высота                                   : 536 пикселей
Соотношение сторон                       : 2,40:1
Режим частоты кадров                     : Постоянный
Частота кадров                           : 24,000 кадра/сек
Цветовое пространство                    : YUV
Субдискретизация насыщенности            : 4:2:0
Битовая глубина                          : 8 бит
Тип развёртки                            : Прогрессивная
Бит/(Пиксели*Кадры)                      : 0.244
Размер потока                            : 3,24 Гбайт (91%)
Язык                                     : German
Default                                  : Да
Forced                                   : Нет
Цветовой диапазон                        : Limited
Основные цвета                           : BT.709
Характеристики трансфера                 : BT.709
Коэффициенты матрицы                     : BT.709

Аудио
Идентификатор                            : 2
Формат                                   : AC-3
Формат/Информация                        : Audio Coding 3
Параметр Endianness формата              : Big
Идентификатор кодека                     : A_AC3
Продолжительность                        : 1 ч. 55 м.
Вид битрейта                             : Постоянный
Битрейт                                  : 384 Кбит/сек
Каналы                                   : 6 каналов
Расположение каналов                     : Front: L C R, Side: L R, LFE
Частота                                  : 48,0 КГц
Частота кадров                           : 31,250 кадров/сек (1536 SPF)
Битовая глубина                          : 16 бит
Метод сжатия                             : С потерями
Размер потока                            : 317 Мбайт (9%)
Язык                                     : Russian
Default                                  : Да
Forced                                   : Нет

Меню
00:00:00.000                             : en:Глава 1
00:06:59.125                             : en:Глава 2
00:15:43.083                             : en:Глава 3
00:25:32.208                             : en:Глава 4
00:30:12.666                             : en:Глава 5
00:36:49.707                             : en:Глава 6
00:43:21.123                             : en:Глава 7
00:47:36.789                             : en:Глава 8
00:55:01.497                             : en:Глава 9
01:04:43.413                             : en:Глава 10
01:10:59.246                             : en:Глава 11
01:17:19.662                             : en:Глава 12
01:26:39.578                             : en:Глава 13
01:33:57.453                             : en:Глава 14




Скриншоты:
[+] Всего файлов в раздаче - 1:
NochnayaZhiznWEBDL720p.mkv3.55 GB

Похожие раздачи по запросу - ночная:
2020-05-31 U Ночная жизнь / Nightlife (2020) WEB-DLRip | iTunes 1.46 GB ↑ 154 ↓ 27
2019-11-24 U Ночная страсть / Night Fire (1994) DVDRip | A 1.13 GB ↑ 97 ↓ 31
2018-08-05 U Ночная смена (2018) WEB-DLRip-AVC от GeneralFilm | iTunes 1.40 GB ↑ 1158 ↓ 88

Отзывы
Зарегистрируйтесь чтобы добавить комментарий.
Обратная связь
Copyleft ©