↑↓torrent.by
Поиск
Логин: Регистрация
Пароль: Восстановить пароль

Прощай / Adiós (2019) BDRip 1080p от селезень | iTunes

Скачать proschay-adi-s-2019-bdrip-1080p-ot-selezen-itunes.torrent
U Магнитная ссылка Размер: 9.43 GB Раздают: 252 Качают: 237 Добавлен: 2020-05-31 20:59:44
Прощай / Adiós (2019) BDRip 1080p от селезень | iTunes

Название: Прощай
Оригинальное название: Adios
Год выхода: 2019
Жанр: Триллер, драма
Режиссер: Пако Кабесас
В ролях: Марио Касас, Наталия де Молина, Рут Диас, Карлос Бардем, Висенте Ромеро, Паулина Феной, Маурисио Моралес, Себастьян Аро, Мона Мартинес, Пилар Гомес

О фильме: Хуан, заключенный под домашним арестом, получает разрешение посетить первое причастие своей дочери. Но после праздника девочка погибает при загадочных обстоятельствах. Дело поручают офицеру полиции Трини. Отец, нарушая закон, выходит на кровавый путь мести. Трини должна остановить его. Она не подозревает, что в погоне за преступником ее настигнет любовь…

Страна: Испания
Студия: Apache Films, Claqueta, La, Instituto de la Cinematografia y de las Artes Audiovisuales
Продолжительность: 01:54:36
Перевод: Дублированный | iTunes

Качество: BDRip 1080p
Видео: MPEG-4 AVC, 1920x804, 10.8 Mbit/s, 24.000 fps
Аудио #01: 48 kHz, AC3, 5.1, 384 Kbps | iTunes | RUS |
Аудио #02: 48 kHz, AC3, 5.1, 640 Kbps | Оригинал |  SPA |
Субтитры: Нет

Релиз:


[+] MI
General
Unique ID                   : 281974790911270908886175155805454633983 (0xD4225E8CECA0F89A070F97B8C6108BFF)
Complete name               : E:Video111BackupAdiós.2019.BDRip.1080p.seleZen.mkv
Format                      : Matroska
Format version              : Version 4
File size                   : 9.43 GiB
Duration                    : 1 h 54 min
Overall bit rate            : 11.8 Mb/s
Movie name                  : Adiós 2019 from селезень
Encoded date                : UTC 2020-05-31 12:11:47
Writing application         : mkvmerge v40.0.0 ('Old Town Road + Pony') 64-bit
Writing library             : libebml v1.3.9 + libmatroska v1.5.2

Video
ID                          : 1
Format                      : AVC
Format/Info                 : Advanced Video Codec
Format profile              : High@L4.1
Format settings             : CABAC / 5 Ref Frames
Format settings, CABAC      : Yes
Format settings, Reference  : 5 frames
Codec ID                    : V_MPEG4/ISO/AVC
Duration                    : 1 h 54 min
Bit rate                    : 10.8 Mb/s
Width                       : 1 920 pixels
Height                      : 804 pixels
Display aspect ratio        : 2.40:1
Frame rate mode             : Constant
Frame rate                  : 24.000 FPS
Color space                 : YUV
Chroma subsampling          : 4:2:0
Bit depth                   : 8 bits
Scan type                   : Progressive
Bits/(Pixel*Frame)          : 0.291
Stream size                 : 8.61 GiB (91%)
Writing library             : x264 core 142 r2431+42 c69a006 tMod [8-bit@all X86_64]
Encoding settings           : cabac=1 / ref=5 / deblock=1:-2:-2 / analyse=0x3:0x133 / me=umh / subme=10 / psy=1 / fade_compensate=0.00 / psy_rd=1.00:0.00 / mixed_ref=1 / me_range=32 / chroma_me=1 / trellis=2 / 8x8dct=1 / cqm=0 / deadzone=21,11 / fast_pskip=0 / chroma_qp_offset=-2 / threads=24 / lookahead_threads=4 / sliced_threads=0 / nr=0 / decimate=0 / interlaced=0 / bluray_compat=0 / constrained_intra=0 / fgo=0 / bframes=8 / b_pyramid=2 / b_adapt=2 / b_bias=0 / direct=3 / weightb=1 / open_gop=0 / weightp=2 / keyint=240 / keyint_min=24 / scenecut=40 / intra_refresh=0 / rc_lookahead=50 / rc=2pass / mbtree=0 / bitrate=10765 / ratetol=1.0 / qcomp=0.60 / qpmin=0:0:0 / qpmax=51:51:51 / qpstep=4 / cplxblur=20.0 / qblur=0.5 / vbv_maxrate=50000 / vbv_bufsize=62500 / nal_hrd=none / filler=0 / ip_ratio=1.40 / pb_ratio=1.30 / aq=3:0.80 / aq-sensitivity=10.00 / aq-factor=1.00:1.00:1.00 / aq2=0 / aq3=0
Language                    : Spanish
Default                     : Yes
Forced                      : No

Audio #1
ID                          : 2
Format                      : AC-3
Format/Info                 : Audio Coding 3
Commercial name             : Dolby Digital
Codec ID                    : A_AC3
Duration                    : 1 h 54 min
Bit rate mode               : Constant
Bit rate                    : 384 kb/s
Channel(s)                  : 6 channels
Channel layout              : L R C LFE Ls Rs
Sampling rate               : 48.0 kHz
Frame rate                  : 31.250 FPS (1536 SPF)
Compression mode            : Lossy
Stream size                 : 315 MiB (3%)
Title                       : iTunes
Language                    : Russian
Service kind                : Complete Main
Default                     : Yes
Forced                      : Yes

Audio #2
ID                          : 3
Format                      : AC-3
Format/Info                 : Audio Coding 3
Commercial name             : Dolby Digital
Codec ID                    : A_AC3
Duration                    : 1 h 54 min
Bit rate mode               : Constant
Bit rate                    : 640 kb/s
Channel(s)                  : 6 channels
Channel layout              : L R C LFE Ls Rs
Sampling rate               : 48.0 kHz
Frame rate                  : 31.250 FPS (1536 SPF)
Compression mode            : Lossy
Stream size                 : 525 MiB (5%)
Title                       : Original
Language                    : Spanish
Service kind                : Complete Main
Default                     : No
Forced                      : No

Menu
00:00:00.000                : en:Chapter 01
00:10:29.375                : en:Chapter 02
00:18:31.167                : en:Chapter 03
00:29:25.542                : en:Chapter 04
00:38:19.958                : en:Chapter 05
00:46:50.750                : en:Chapter 06
00:56:34.083                : en:Chapter 07
01:08:54.333                : en:Chapter 08
01:16:37.792                : en:Chapter 09
01:26:49.208                : en:Chapter 10
01:35:55.542                : en:Chapter 11
01:49:35.500                : en:Chapter 12



Скриншоты:
[+] Всего файлов в раздаче - 1:
Adiós.2019.BDRip.1080p.seleZen.mkv9.43 GB

Похожие раздачи по запросу - прощай:
2020-06-02 U Прощай / Adiós (2019) HDRip от Portablius | iTunes 748.48 MB ↑ 69 ↓ 14
2020-06-01 U Прощай / Adiós (2019) BDRemux 1080p от селезень | iTunes 25.61 GB ↑ 40 ↓ 18
2020-05-31 U Прощай / Adiós (2019) BDRip от MegaPeer | iTunes 1.46 GB ↑ 597 ↓ 246

Отзывы
Зарегистрируйтесь чтобы добавить комментарий.
Обратная связь
Copyleft ©