↑↓torrent.by
Поиск
Логин: Регистрация
Пароль: Восстановить пароль

Прощай / Adiós (2019) BDRemux 1080p от селезень | iTunes

Скачать proschay-adi-s-2019-bdremux-1080p-ot-selezen-itunes.torrent
U Магнитная ссылка Размер: 25.61 GB Раздают: 52 Качают: 19 Добавлен: 2020-06-01 07:06:44
Прощай / Adiós (2019) BDRemux 1080p от селезень | iTunes

Название: Прощай
Оригинальное название: Adios
Год выхода: 2019
Жанр: Триллер, драма
Режиссер: Пако Кабесас
В ролях: Марио Касас, Наталия де Молина, Рут Диас, Карлос Бардем, Висенте Ромеро, Паулина Феной, Маурисио Моралес, Себастьян Аро, Мона Мартинес, Пилар Гомес

О фильме: Хуан, заключенный под домашним арестом, получает разрешение посетить первое причастие своей дочери. Но после праздника девочка погибает при загадочных обстоятельствах. Дело поручают офицеру полиции Трини. Отец, нарушая закон, выходит на кровавый путь мести. Трини должна остановить его. Она не подозревает, что в погоне за преступником ее настигнет любовь…

Страна: Испания
Студия: Apache Films, Claqueta, La, Instituto de la Cinematografia y de las Artes Audiovisuales
Продолжительность: 01:54:36
Перевод: Дублированный | iTunes

Качество: BDRemux 1080p
Видео: MPEG-4 AVC, 1920x1080, 28.0 Mbit/s, 24.000 fps
Аудио #01: 48 kHz, AC3, 5.1, 384 Kbps | iTunes | RUS |
Аудио #02: 48 kHz, DTS-HD MA, 5.1, 3616 Kbps | Оригинал |  SPA |
Субтитры: Нет

Релиз:


[+] MI
General
Unique ID                   : 16057347915558666904529007936204291752 (0xC14886031A0E67322CD637B7431BEA8)
Complete name               : E:Video111BackupAdiós.2019.BDREMUX.1080p.seleZen.mkv
Format                      : Matroska
Format version              : Version 4
File size                   : 25.6 GiB
Duration                    : 1 h 54 min
Overall bit rate mode       : Variable
Overall bit rate            : 32.0 Mb/s
Movie name                  : Adiós 2019 from селезень
Encoded date                : UTC 2020-05-31 12:28:44
Writing application         : mkvmerge v40.0.0 ('Old Town Road + Pony') 64-bit
Writing library             : libebml v1.3.9 + libmatroska v1.5.2

Video
ID                          : 1
Format                      : AVC
Format/Info                 : Advanced Video Codec
Format profile              : High@L4.1
Format settings             : CABAC / 4 Ref Frames
Format settings, CABAC      : Yes
Format settings, Reference  : 4 frames
Codec ID                    : V_MPEG4/ISO/AVC
Duration                    : 1 h 54 min
Bit rate mode               : Variable
Bit rate                    : 28.0 Mb/s
Maximum bit rate            : 36.0 Mb/s
Width                       : 1 920 pixels
Height                      : 1 080 pixels
Display aspect ratio        : 16:9
Frame rate mode             : Constant
Frame rate                  : 24.000 FPS
Standard                    : NTSC
Color space                 : YUV
Chroma subsampling          : 4:2:0
Bit depth                   : 8 bits
Scan type                   : Progressive
Bits/(Pixel*Frame)          : 0.562
Stream size                 : 22.4 GiB (87%)
Language                    : Spanish
Default                     : Yes
Forced                      : No
Color range                 : Limited
Color primaries             : BT.709
Transfer characteristics    : BT.709
Matrix coefficients         : BT.709

Audio #1
ID                          : 2
Format                      : AC-3
Format/Info                 : Audio Coding 3
Commercial name             : Dolby Digital
Codec ID                    : A_AC3
Duration                    : 1 h 54 min
Bit rate mode               : Constant
Bit rate                    : 384 kb/s
Channel(s)                  : 6 channels
Channel layout              : L R C LFE Ls Rs
Sampling rate               : 48.0 kHz
Frame rate                  : 31.250 FPS (1536 SPF)
Compression mode            : Lossy
Stream size                 : 315 MiB (1%)
Title                       : iTunes
Language                    : Russian
Service kind                : Complete Main
Default                     : Yes
Forced                      : Yes

Audio #2
ID                          : 3
Format                      : DTS XLL
Format/Info                 : Digital Theater Systems
Commercial name             : DTS-HD Master Audio
Codec ID                    : A_DTS
Duration                    : 1 h 54 min
Bit rate mode               : Variable
Bit rate                    : 3 616 kb/s
Channel(s)                  : 6 channels
Channel layout              : C L R Ls Rs LFE
Sampling rate               : 48.0 kHz
Frame rate                  : 93.750 FPS (512 SPF)
Bit depth                   : 24 bits
Compression mode            : Lossless
Stream size                 : 2.90 GiB (11%)
Title                       : Original
Language                    : Spanish
Default                     : No
Forced                      : No

Menu
00:00:00.000                : en:Chapter 01
00:10:29.375                : en:Chapter 02
00:18:31.167                : en:Chapter 03
00:29:25.542                : en:Chapter 04
00:38:19.958                : en:Chapter 05
00:46:50.750                : en:Chapter 06
00:56:34.083                : en:Chapter 07
01:08:54.333                : en:Chapter 08
01:16:37.792                : en:Chapter 09
01:26:49.208                : en:Chapter 10
01:35:55.542                : en:Chapter 11
01:49:35.500                : en:Chapter 12



Скриншоты:
[+] Всего файлов в раздаче - 1:
Adiós.2019.BDREMUX.1080p.seleZen.mkv25.61 GB

Похожие раздачи по запросу - прощай:
2020-06-02 U Прощай / Adiós (2019) HDRip от Portablius | iTunes 748.48 MB ↑ 78 ↓ 14
2020-05-31 U Прощай / Adiós (2019) BDRip 1080p от селезень | iTunes 9.43 GB ↑ 265 ↓ 237
2020-05-31 U Прощай / Adiós (2019) BDRip от MegaPeer | iTunes 1.46 GB ↑ 610 ↓ 246

Отзывы
Зарегистрируйтесь чтобы добавить комментарий.
Загрузите программу
  uTorrent.exe
Обратная связь
Copyleft ©