↑↓torrent.by
Поиск
Логин: Регистрация
Пароль: Восстановить пароль

Охота / The Hunt (2020) BDRip 1080p | P, A

Скачать ohota-the-hunt-2020-bdrip-1080p-p-a.torrent
U Магнитная ссылка Размер: 7.75 GB Раздают: 98 Качают: 48 Добавлен: 2020-06-01 13:37:08
Охота / The Hunt (2020) BDRip 1080p | P, A

Название: Охота
Оригинальное название: The Hunt
Год выхода: 2020
Жанр: ужасы, боевик, триллер
Режиссер: Крэйг Зобел
В ролях: Бетти Гилпин, Эмма Робертс, Итэн Сапли, Хилари Суэнк, Джастин Хартли, Дж.С. МакКензи, Айк Баринхолц, Гленн Хоуертон, Эми Мэдиган, Мэйкон Блэр, Уэйн Дювалл, Кристофер Берри, Стерджил Симпсон, Кейт Ноулин

О фильме:
12 незнакомцев просыпаются в глухом лесу. Они понятия не имеют, где находятся и как здесь оказались. Они даже не подозревают, что были избраны... стать дичью. Сезон охоты официально объявляется открытым.

 
Страна: США
Студия: Blumhouse Productions, White Rabbit
Продолжительность: 01:30:02
Перевод: Профессиональный (многоголосый, закадровый), Авторский (одноголосый)
Внимание: присутствует ненормативная лексика

Файл
Качество: BDRip 1080p
Видео: AVC/H.264, 1920x804, 10 Мbps, 23.976 fps
Звук:
Аудио 1: AC3, 6 ch, 448 Kbps - Русский (MVO HDrezka Studio)
Аудио 2: AC3, 6 ch, 384 Kbps - Русский (AVO М.Яроцкий)
Аудио 3: DTS, 6 ch, 1509 Kbps - Английский
Субтитры: русские (Forced, Full), английские (Full, SDH)


[+] Mediainfo
Общее
Уникальный идентификатор                 : 173244505912022329537050225437238972344 (0x8255AD9C2219414736DF0DC0B3B54FB8)
Полное имя                               : The Hunt.2020.BDRip.1080p.W.mkv
Формат                                   : Matroska
Версия формата                           : Version 4
Размер файла                             : 7,75 Гбайт
Продолжительность                        : 1 ч. 30 м.
Общий поток                              : 12,3 Мбит/сек
Название фильма                          : The Hunt.2020.BDRip.1080p.W
Дата кодирования                         : UTC 2020-05-31 20:12:34
Программа кодирования                    : mkvmerge v23.0.0 ('The Bride Said No') 64-bit
Библиотека кодирования                   : libebml v1.3.6 + libmatroska v1.4.9

Видео
Идентификатор                            : 1
Формат                                   : AVC
Формат/Информация                        : Advanced Video Codec
Профиль формата                          : High@L4.1
Настройки формата                        : CABAC / 5 Ref Frames
Параметр CABAC формата                   : Да
Параметр RefFrames формата               : 5 кадров
Идентификатор кодека                     : V_MPEG4/ISO/AVC
Продолжительность                        : 1 ч. 30 м.
Битрейт                                  : 10 000 Кбит/сек
Ширина                                   : 1 920 пикселей
Высота                                   : 804 пикселя
Соотношение сторон                       : 2,40:1
Режим частоты кадров                     : Постоянный
Частота кадров                           : 23,976 (23976/1000) кадра/сек
Цветовое пространство                    : YUV
Субдискретизация насыщенности            : 4:2:0
Битовая глубина                          : 8 бит
Тип развёртки                            : Прогрессивная
Бит/(Пиксели*Кадры)                      : 0.270
Размер потока                            : 6,28 Гбайт (81%)
Заголовок                                : rip by -=walledol=-
Библиотека кодирования                   : x264 core 159 r2991 1771b55
Настройки программы                      : cabac=1 / ref=5 / deblock=1:-3:-3 / analyse=0x3:0x133 / me=umh / subme=11 / psy=1 / psy_rd=1.00:0.00 / mixed_ref=1 / me_range=32 / chroma_me=1 / trellis=2 / 8x8dct=1 / cqm=0 / deadzone=21,11 / fast_pskip=0 / chroma_qp_offset=-2 / threads=12 / lookahead_threads=2 / sliced_threads=0 / nr=0 / decimate=1 / interlaced=0 / bluray_compat=0 / constrained_intra=0 / bframes=9 / b_pyramid=2 / b_adapt=2 / b_bias=0 / direct=3 / weightb=1 / open_gop=0 / weightp=2 / keyint=240 / keyint_min=23 / scenecut=40 / intra_refresh=0 / rc_lookahead=60 / rc=2pass / mbtree=0 / bitrate=10000 / ratetol=1.0 / qcomp=0.60 / qpmin=0 / qpmax=69 / qpstep=4 / cplxblur=20.0 / qblur=0.5 / vbv_maxrate=30000 / vbv_bufsize=33000 / nal_hrd=none / filler=0 / ip_ratio=1.40 / pb_ratio=1.30 / aq=3:0.80
Язык                                     : English
Default                                  : Да
Forced                                   : Нет

Аудио #1
Идентификатор                            : 2
Формат                                   : AC-3
Формат/Информация                        : Audio Coding 3
Коммерческое название                    : Dolby Digital
Идентификатор кодека                     : A_AC3
Продолжительность                        : 1 ч. 30 м.
Вид битрейта                             : Постоянный
Битрейт                                  : 448 Кбит/сек
Каналы                                   : 6 каналов
Channel layout                           : L R C LFE Ls Rs
Частота                                  : 48,0 КГц
Частота кадров                           : 31,250 кадров/сек (1536 SPF)
Метод сжатия                             : С потерями
Размер потока                            : 288 Мбайт (4%)
Заголовок                                : MVO | HDrezka Studio
Язык                                     : Russian
Service kind                             : Complete Main
Default                                  : Да
Forced                                   : Нет

Аудио #2
Идентификатор                            : 3
Формат                                   : AC-3
Формат/Информация                        : Audio Coding 3
Коммерческое название                    : Dolby Digital
Идентификатор кодека                     : A_AC3
Продолжительность                        : 1 ч. 30 м.
Вид битрейта                             : Постоянный
Битрейт                                  : 384 Кбит/сек
Каналы                                   : 6 каналов
Channel layout                           : L R C LFE Ls Rs
Частота                                  : 48,0 КГц
Частота кадров                           : 31,250 кадров/сек (1536 SPF)
Метод сжатия                             : С потерями
Размер потока                            : 247 Мбайт (3%)
Заголовок                                : AVO  Kyberpunk
Язык                                     : Russian
Service kind                             : Complete Main
Default                                  : Нет
Forced                                   : Нет

Аудио #3
Идентификатор                            : 4
Формат                                   : DTS
Формат/Информация                        : Digital Theater Systems
Идентификатор кодека                     : A_DTS
Продолжительность                        : 1 ч. 30 м.
Вид битрейта                             : Постоянный
Битрейт                                  : 1 509 Кбит/сек
Каналы                                   : 6 каналов
Channel layout                           : C L R Ls Rs LFE
Частота                                  : 48,0 КГц
Частота кадров                           : 93,750 кадра/сек (512 SPF)
Битовая глубина                          : 24 бит
Метод сжатия                             : С потерями
Размер потока                            : 972 Мбайт (12%)
Язык                                     : English
Default                                  : Нет
Forced                                   : Нет

Текст #1
Идентификатор                            : 5
Формат                                   : UTF-8
Идентификатор кодека                     : S_TEXT/UTF8
Идентификатор кодека/Информация          : UTF-8 Plain Text
Продолжительность                        : 1 м. 0 с.
Битрейт                                  : 193 бит/сек
Count of elements                        : 18
Размер потока                            : 1,43 Кбайт (0%)
Заголовок                                : Forced
Язык                                     : Russian
Default                                  : Да
Forced                                   : Нет

Текст #2
Идентификатор                            : 6
Формат                                   : UTF-8
Идентификатор кодека                     : S_TEXT/UTF8
Идентификатор кодека/Информация          : UTF-8 Plain Text
Продолжительность                        : 1 ч. 24 м.
Битрейт                                  : 90 бит/сек
Count of elements                        : 1239
Размер потока                            : 55,4 Кбайт (0%)
Заголовок                                : Full
Язык                                     : Russian
Default                                  : Нет
Forced                                   : Нет

Текст #3
Идентификатор                            : 7
Формат                                   : UTF-8
Идентификатор кодека                     : S_TEXT/UTF8
Идентификатор кодека/Информация          : UTF-8 Plain Text
Продолжительность                        : 1 ч. 22 м.
Битрейт                                  : 57 бит/сек
Count of elements                        : 1278
Размер потока                            : 34,9 Кбайт (0%)
Язык                                     : English
Default                                  : Нет
Forced                                   : Нет

Текст #4
Идентификатор                            : 8
Формат                                   : UTF-8
Идентификатор кодека                     : S_TEXT/UTF8
Идентификатор кодека/Информация          : UTF-8 Plain Text
Продолжительность                        : 1 ч. 29 м.
Битрейт                                  : 62 бит/сек
Count of elements                        : 1572
Размер потока                            : 40,9 Кбайт (0%)
Заголовок                                : SDH
Язык                                     : English
Default                                  : Нет
Forced                                   : Нет

Меню
00:00:00.000                             : en:Chapter 1
00:02:13.299                             : en:Chapter 2
00:06:57.083                             : en:Chapter 3
00:10:44.644                             : en:Chapter 4
00:15:34.725                             : en:Chapter 5
00:18:05.667                             : en:Chapter 6
00:22:32.267                             : en:Chapter 7
00:25:22.229                             : en:Chapter 8
00:31:54.579                             : en:Chapter 9
00:38:49.869                             : en:Chapter 10
00:43:11.880                             : en:Chapter 11
00:49:48.443                             : en:Chapter 12
00:52:26.184                             : en:Chapter 13
00:56:58.081                             : en:Chapter 14
01:00:44.432                             : en:Chapter 15
01:05:08.654                             : en:Chapter 16
01:08:11.337                             : en:Chapter 17
01:14:47.816                             : en:Chapter 18
01:22:04.836                             : en:Chapter 19
01:24:55.048                             : en:Chapter 20



Скриншоты:
[+] Всего файлов в раздаче - 1:
The Hunt.2020.1080p_W.mkv7.75 GB

Показать еще раздачи по запросу охота:
2020-06-28 U Охота на Золушку [01-14 из 14] (2000) DVDRip-AVC 7.86 GB ↑ 88 ↓ 109
2020-06-14 U Охота / The Hunt (2020) BDRip 1080p от HELLYWOOD | P, A 1К7.47 GB ↑ 106 ↓ 48
2020-06-03 U Улика из прошлого. Последняя загадка Ленина: охота за мозгом вождя (2020) SATRip 520.28 MB ↑ 38 ↓ 6
2020-06-02 U Охота / The Hunt (2020) HDRip от Portablius | P 745.35 MB ↑ 59 ↓ 10
2020-06-01 U Охота / The Hunt (2020) BDRemux 1080p | P, A 20.79 GB ↑ 44 ↓ 43
2020-06-01 U Охота / The Hunt (2020) BDRip-AVC от ExKinoRay | P, A 1.82 GB ↑ 43 ↓ 32
2020-06-01 U Охота / The Hunt (2020) BDRip 720p от ExKinoRay | P, A 3.01 GB ↑ 57 ↓ 29

Отзывы
Зарегистрируйтесь чтобы добавить комментарий.
Обратная связь
Copyleft ©