↑↓torrent.by
Поиск
Логин: Регистрация
Пароль: Восстановить пароль

Свистуны / La Gomera / The Whistlers (2019) WEB-DLRip-AVC от ExKinoRay | iTunes

Скачать svistuny-la-gomera-the-whistlers-2019-web-dlrip-avc-ot-exkinoray-itunes.torrent
U Магнитная ссылка Размер: 1.26 GB Раздают: 88 Качают: 21 Добавлен: 2020-06-01 13:37:20
Свистуны / La Gomera / The Whistlers (2019) WEB-DLRip-AVC от ExKinoRay | iTunes

Название: Свистуны
Оригинальное название: La Gomera
Год выпуска: 2019
Жанр:  Комедия, криминал
Режиссер: Корнелиу Порумбою
В ролях: Влад Иванов, Катринель Марлон, Родика Лазэр, Агусти Вильяронга, Сабин Тамбреа, Иштван Теглас, Кристобаль Пинто, Антонио Буиль, Джордже Пистерьяну, Дэвид Агранов

О фильме:
Кристи, коррумпированный полицейский из Бухареста, без памяти влюбляется в прекрасную Гилду, роковую женщину, связанную с преступным бизнесом. Ради нее он готов на любую авантюру. Кристи намерен отправиться на солнечный остров Гомера, чтобы вызволить из тюрьмы нечистого на руку бизнесмена. Но для осуществления дерзкого плана он должен выучить местный язык свиста, специально разработанный бандитами для общения на расстоянии.

Страна: Румыния, Франция, Германия
Студия: 42 Km Film, Les Films du Worso, Komplizen Film
Продолжительность: 01:37:18
Перевод: Профессиональный (многоголосый, закадровый) | iTunes

Файл
Формат: MKV
Качество: WEB-DLRip-AVC
Видео: MPEG-4 AVC, 1024x430, - 1470 Кбит/с
Аудио:  48 kHz, AC3, 5.1, 384 Kbps | iTunes
Субтитры: Нет

Семпл


[+] MI
Общее
Уникальный идентификатор : 176029951587581856694359939159996675521 (0x846E22AF4947C4437C3CBAB69972B5C1)
Полное имя : D:MOVIESLa.Gomera.2019. WEB-DLRip-AVC.ExKinoRay.mkv
Формат : Matroska
Версия формата : Version 4
Размер файла : 1,26 Гбайт
Продолжительность : 1 ч. 37 м.
Общий поток : 1 856 Кбит/сек
Дата кодирования : UTC 2020-05-31 15:10:15
Программа кодирования : mkvmerge v45.0.0 ('Heaven in Pennies') 64-bit
Библиотека кодирования : libebml v1.3.10 + libmatroska v1.5.2

Видео
Идентификатор : 1
Формат : AVC
Формат/Информация : Advanced Video Codec
Профиль формата : High@L4.1
Настройки формата : CABAC / 12 Ref Frames
Параметр CABAC формата : Да
Параметр RefFrames формата : 12 кадров
Идентификатор кодека : V_MPEG4/ISO/AVC
Продолжительность : 1 ч. 37 м.
Битрейт : 1 470 Кбит/сек
Ширина : 1 024 пикселя
Высота : 430 пикселей
Соотношение сторон : 2,40:1
Режим частоты кадров : Постоянный
Частота кадров : 24,000 кадра/сек
Цветовое пространство : YUV
Субдискретизация насыщенности : 4:2:0
Битовая глубина : 8 бит
Тип развёртки : Прогрессивная
Бит/(Пиксели*Кадры) : 0.139
Размер потока : 1 024 Мбайт (79%)
Библиотека кодирования : x264 core 160 r3000 33f9e14
Настройки программы : cabac=1 / ref=12 / deblock=1:-3:-3 / analyse=0x3:0x133 / me=umh / subme=10 / psy=1 / psy_rd=1.05:0.13 / mixed_ref=1 / me_range=32 / chroma_me=1 / trellis=2 / 8x8dct=1 / cqm=0 / deadzone=21,11 / fast_pskip=0 / chroma_qp_offset=-3 / threads=6 / lookahead_threads=1 / sliced_threads=0 / nr=0 / decimate=0 / interlaced=0 / bluray_compat=0 / constrained_intra=0 / bframes=10 / b_pyramid=2 / b_adapt=2 / b_bias=0 / direct=3 / weightb=1 / open_gop=0 / weightp=2 / keyint=240 / keyint_min=24 / scenecut=40 / intra_refresh=0 / rc=2pass / mbtree=0 / bitrate=1470 / ratetol=1.0 / qcomp=0.60 / qpmin=0 / qpmax=69 / qpstep=4 / cplxblur=20.0 / qblur=0.5 / ip_ratio=1.40 / pb_ratio=1.30 / aq=1:1.00
Язык : English
Default : Да
Forced : Нет
Цветовой диапазон : Limited
Основные цвета : BT.709
Характеристики трансфера : BT.709
Коэффициенты матрицы : BT.709

Аудио
Идентификатор : 2
Формат : AC-3
Формат/Информация : Audio Coding 3
Коммерческое название : Dolby Digital
Идентификатор кодека : A_AC3
Продолжительность : 1 ч. 37 м.
Вид битрейта : Постоянный
Битрейт : 384 Кбит/сек
Каналы : 6 каналов
Channel layout : L R C LFE Ls Rs
Частота : 48,0 КГц
Частота кадров : 31,250 кадров/сек (1536 SPF)
Метод сжатия : С потерями
Размер потока : 267 Мбайт (21%)
Заголовок : iTunes
Язык : Russian
Service kind : Complete Main
Default : Да
Forced : Да

Меню
00:00:00.000 : en:Глава 1
00:08:22.708 : en:Глава 2
00:16:40.124 : en:Глава 3
00:24:49.249 : en:Глава 4
00:33:51.874 : en:Глава 5
00:42:41.540 : en:Глава 6
00:51:32.706 : en:Глава 7
01:00:08.331 : en:Глава 8
01:08:14.706 : en:Глава 9
01:16:26.789 : en:Глава 10
01:25:09.580 : en:Глава 11



Скриншоты:
[+] Всего файлов в раздаче - 1:
La.Gomera.2019. WEB-DLRip-AVC.ExKinoRay.mkv1.26 GB

Похожие раздачи по запросу - свистуны:
2020-03-25 U Свистуны / La Gomera / The Whistlers (2019) WEB-DL 1080p от селезень | iTunes 3.33 GB ↑ 317 ↓ 158
2020-03-25 U Свистуны / La Gomera / The Whistlers (2019) WEB-DLRip от MegaPeer | iTunes 1.46 GB ↑ 576 ↓ 188

Отзывы
Зарегистрируйтесь чтобы добавить комментарий.
Обратная связь
Copyleft ©