↑↓torrent.by
Поиск
Логин: Регистрация
Пароль: Восстановить пароль

Бог грома / Mortal (2020) WEB-DL 1080p | iTunes

Скачать bog-groma-mortal-2020-web-dl-1080p-itunes.torrent
U Магнитная ссылка Размер: 3.54 GB Раздают: 476 Качают: 194 Добавлен: 2020-06-02 07:38:49
Бог грома / Mortal (2020) WEB-DL 1080p | iTunes

Название: Бог грома
Оригинальное название: Mortal
Год выхода: 2020
Цифровой релиз (в России): 01 июня 2020
Жанр: фэнтези, боевик, приключения
Режиссер: Андре Овредал
В ролях: Нат Вулф, Приянка Бозе, Ибен М. Акерлие, Артур Хакалахти, Оддрун Валестранд, Равдип Сингх Баджва, Аня Нова, Суннива Линд Ховерстад, Пер Фриш, Нико Русаков

О фильме:
Повелевать стихией, обращать в пепел прикосновением и заставлять всё живое трепетать от страха — удел языческих богов. Но что произойдет, когда планета столкнется с одним из них во плоти? Ведь этот древний Бог всего лишь человек.

 
Страна: Норвегия, США, Великобритания
Продолжительность: 01:43:58
Перевод: Дублированный | iTunes

Файл
Формат: MKV
Кодек: MPEG-4 AVC
Качество: WEB-DL 1080p
Видео: 1920x806, ~ 4 488 kb/s, 8 bits, 24.000 FPS
Аудио #1 (русский): AC-3, 384 kb/s, 6 ch (L R C LFE Ls Rs), 48.0 kHz
Субтитры: отсутствуют
Навигация по главам: есть


[+] MediaInfo

General
Unique ID                   : 281191437487404568449377926729894382197 (0xD38B803EAAD9B33907B6AB3EFBDECA75)
Complete name               : [KORSARS]_Mortal.2020.WEBDL.1080p.iTunes.mkv
Format                      : Matroska
Format version              : Version 4
File size                   : 3.54 GiB
Duration                    : 1 h 43 min
Overall bit rate            : 4 874 kb/s
Movie name                  : [KORSARS]_Mortal.2020.WEBDL.1080p.iTunes
Encoded date                : UTC 2020-06-01 18:29:52
Writing application         : mkvmerge v47.0.0 ('Black Flag') 64-bit
Writing library             : libebml v1.3.10 + libmatroska v1.5.2

Video
ID                          : 1
Format                      : AVC
Format/Info                 : Advanced Video Codec
Format profile              : High@L4
Format settings             : CABAC / 5 Ref Frames
Format settings, CABAC      : Yes
Format settings, Reference  : 5 frames
Format settings, GOP        : N=1
Codec ID                    : V_MPEG4/ISO/AVC
Duration                    : 1 h 43 min
Bit rate                    : 4 488 kb/s
Width                       : 1 920 pixels
Height                      : 806 pixels
Display aspect ratio        : 2.40:1
Frame rate mode             : Constant
Frame rate                  : 24.000 FPS
Color space                 : YUV
Chroma subsampling          : 4:2:0
Bit depth                   : 8 bits
Scan type                   : Progressive
Bits/(Pixel*Frame)          : 0.121
Stream size                 : 3.26 GiB (92%)
Language                    : English
Default                     : Yes
Forced                      : No
Color range                 : Limited
Color primaries             : BT.709
Transfer characteristics    : BT.709
Matrix coefficients         : BT.709

Audio
ID                          : 2
Format                      : AC-3
Format/Info                 : Audio Coding 3
Commercial name             : Dolby Digital
Codec ID                    : A_AC3
Duration                    : 1 h 43 min
Bit rate mode               : Constant
Bit rate                    : 384 kb/s
Channel(s)                  : 6 channels
Channel layout              : L R C LFE Ls Rs
Sampling rate               : 48.0 kHz
Frame rate                  : 31.250 FPS (1536 SPF)
Compression mode            : Lossy
Delay relative to video     : -42 ms
Stream size                 : 286 MiB (8%)
Language                    : Russian
Service kind                : Complete Main
Default                     : Yes
Forced                      : No

Menu
00:00:00.000                : ru:Глава 1
00:08:32.707                : ru:Глава 2
00:11:07.248                : ru:Глава 3
00:19:53.830                : ru:Глава 4
00:26:12.580                : ru:Глава 5
00:34:42.746                : ru:Глава 6
00:41:34.829                : ru:Глава 7
00:49:08.870                : ru:Глава 8
00:56:04.245                : ru:Глава 9
01:04:20.995                : ru:Глава 10
01:09:20.036                : ru:Глава 11
01:17:58.077                : ru:Глава 12
01:23:49.868                : ru:Глава 13
01:29:09.200                : ru:Глава 14
01:36:50.700                : ru:Глава 15



Скриншоты:
[+] Всего файлов в раздаче - 1:
[KORSARS]_Mortal.2020.WEBDL.1080p.iTunes.mkv3.54 GB

Похожие раздачи по запросу - грома:
2020-06-04 U Бог грома / Mortal (2020) WEB-DLRip-AVC | iTunes 742.97 MB ↑ 51 ↓ 15
2020-06-03 U Бог грома / Mortal (2020) WEB-DLRip-AVC от MediaBit | iTunes 1.88 GB ↑ 41 ↓ 15
2020-06-02 U Бог грома / Mortal (2020) WEB-DLRip от Portablius | iTunes 747.31 MB ↑ 98 ↓ 42
2020-06-02 U Бог грома / Mortal (2020) WEB-DLRip от MegaPeer | iTunes 1.46 GB ↑ 398 ↓ 116

Отзывы
Зарегистрируйтесь чтобы добавить комментарий.
Обратная связь
Copyleft ©