↑↓torrent.by
Поиск
Логин: Регистрация
Пароль: Восстановить пароль

Дети Дюны / Children of Dune (2003) BDRip 720p от FREEISLAND

Скачать deti-dyuny-children-of-dune-2003-bdrip-720p-ot-freeisland.torrent
U Магнитная ссылка Размер: 10.29 GB Раздают: 43 Качают: 25 Добавлен: 2020-06-02 07:40:25
Дети Дюны / Children of Dune (2003) BDRip 720p от FREEISLAND

Название: Дети Дюны
Оригинальное название: Children Of Dune
Год выхода: 2003
Жанр: фантастика, фэнтези, драма
Режиссер: Грег Яйтанс
В ролях: Алек Ньюман, Джули Кокс, Сьюзан Сарандон, Эдвард Аттертон, Иэн МакНис, Барбора Кодетова, Стивен Беркофф, Даниэла Амавиа, П.Х. Мориарти, Джеймс МакЭвой, Джессика Брукс, Элис Крайдж, Зденек Мариска

О фильме:
Прошло 12 лет с тех пор, как Пол Муад-Диб Атрейдес, житель пустыни, задумал подчинить себе Империю. За эти годы все известные планеты попали под власть Пола.
Но барон Харконнен — старый враг Муад-Диба не оставляет надежд низвергнуть Атрейдесов. Теперь судьба и жизнь Империи зависят от детей Пола. Будущее Дюны в руках его сына, обладающего сверхъестественными способностями…

Страна: США, Германия
Студия: Hallmark Entertainment
Продолжительность: 3 серии по ~ 1:23:46, 1:23:29 и 1:23:48
Перевод: Профессиональный (многоголосый, закадровый)

Файл
Кодек: H.264
Качество: BDRip 720p
Видео: 5200 Кбит/сек, 1280*720 (16:9), в 25,000 кадр/сек, AVC (High@L4.1)
Звук:
Russian, 448 Кбит/сек, 48,0 КГц, 16 бит, 6 канала(ов), AC-3
English, 224 Кбит/сек, 48,0 КГц, 16 бит, 6 канала(ов), AC-3

Релиз:


[+]
Общее
Уникальный идентификатор         : 222274260635726166972317475392630403945 (0xA73877273D274C22A6548A14FC19B369)
Полное имя                       : F:BDRipCHILDREN OF DUNE(2003)BDRip720pCHILDREN OF DUNE part 1.mkv
Формат                           : Matroska
Версия формата                   : Version 2
Размер файла                     : 3,44 Гбайт
Продолжительность                : 1 ч. 23 м.
Общий поток                      : 5874 Кбит/сек
Дата кодирования                 : UTC 2011-11-14 16:31:58
Программа кодирования            : mkvmerge v5.0.1 ('Es ist Sommer') built on Oct  9 2011 11:55:43
Библиотека кодирования           : libebml v1.2.2 + libmatroska v1.3.0

Видео
Идентификатор                    : 1
Формат                           : AVC
Формат/Информация                : Advanced Video Codec
Профиль формата                  : High@L4.1
Параметр CABAC формата           : Да
Параметр ReFrames формата        : 9 кадров
Идентификатор кодека             : V_MPEG4/ISO/AVC
Продолжительность                : 1 ч. 23 м.
Битрейт                          : 5200 Кбит/сек
Ширина                           : 1280 пикселей
Высота                           : 720 пикселей
Соотношение сторон               : 16:9
Частота кадров                   : 25,000 кадров/сек
Цветовое пространство            : YUV
Субдискретизация насыщенности    : 4:2:0
Битовая глубина                  : 8 бит
Тип развёртки                    : Прогрессивная
Бит/(Пиксели*Кадры)              : 0.226
Размер потока                    : 2,98 Гбайт (87%)
Библиотека кодирования           : x264 core 119 r2106 07efeb4
Настройки программы              : cabac=1 / ref=9 / deblock=1:-1:-1 / analyse=0x3:0x133 / me=esa / subme=10 / psy=1 / psy_rd=1.00:0.15 / mixed_ref=1 / me_range=32 / chroma_me=1 / trellis=2 / 8x8dct=1 / cqm=0 / deadzone=21,11 / fast_pskip=0 / chroma_qp_offset=-3 / threads=6 / sliced_threads=0 / nr=0 / decimate=0 / interlaced=0 / bluray_compat=0 / constrained_intra=0 / bframes=6 / b_pyramid=2 / b_adapt=2 / b_bias=0 / direct=3 / weightb=1 / open_gop=0 / weightp=2 / keyint=250 / keyint_min=23 / scenecut=40 / intra_refresh=0 / rc_lookahead=60 / rc=2pass / mbtree=1 / bitrate=5200 / ratetol=1.0 / qcomp=0.75 / qpmin=10 / qpmax=51 / qpstep=4 / cplxblur=20.0 / qblur=0.5 / ip_ratio=1.40 / aq=1:1.00
Язык                             : English

Аудио #1
Идентификатор                    : 2
Формат                           : AC-3
Формат/Информация                : Audio Coding 3
Расширение режима                : CM (complete main)
Идентификатор кодека             : A_AC3
Продолжительность                : 1 ч. 23 м.
Вид битрейта                     : Постоянный
Битрейт                          : 448 Кбит/сек
Каналы                           : 6 каналов
Расположение каналов             : Front: L C R, Side: L R, LFE
Частота                          : 48,0 КГц
Битовая глубина                  : 16 бит
Метод сжатия                     : С потерями
Размер потока                    : 268 Мбайт (8%)
Язык                             : Russian

Аудио #2
Идентификатор                    : 3
Формат                           : AC-3
Формат/Информация                : Audio Coding 3
Расширение режима                : CM (complete main)
Идентификатор кодека             : A_AC3
Продолжительность                : 1 ч. 23 м.
Вид битрейта                     : Постоянный
Битрейт                          : 224 Кбит/сек
Каналы                           : 6 каналов
Расположение каналов             : Front: L C R, Side: L R, LFE
Частота                          : 48,0 КГц
Битовая глубина                  : 16 бит
Метод сжатия                     : С потерями
Размер потока                    : 134 Мбайт (4%)
Язык                             : English




Скриншоты:
[+] Всего файлов в раздаче - 3:
CHILDREN OF DUNE part 3.mkv3.44 GB
CHILDREN OF DUNE part 1.mkv3.44 GB
CHILDREN OF DUNE part 2.mkv3.42 GB

Показать еще раздачи по запросу дети:
2020-06-21 U Взрослые дети (1961) WEB-DL 1080p 2.16 GB ↑ 19 ↓ 6
2020-05-04 U Чужие дети [01-04 из 04] (2020) WEBRip от GeneralFilm 2.18 GB ↑ 49 ↓ 30
2020-04-10 U Адриан Чайковски - Дети времени (2020) FB2 1.84 MB ↑ 76 ↓ 4
2020-02-29 U Голос. Дети [07x01-03] (2020) HDTVRip от GeneralFilm 3.87 GB ↑ 142 ↓ 152
2020-02-22 U Голос. Дети [07x01-02] (2020) HDTVRip от GeneralFilm 2.63 GB ↑ 184 ↓ 119
2020-01-01 U Уральские пельмени. Ёлки, дети, два стола (2019) SATRip 898.67 MB ↑ 616 ↓ 115
2019-11-08 U Дети моря / Kaijuu no Kodomo (2019) WEB-DLRip | iTunes 1.46 GB ↑ 207 ↓ 28

Отзывы
Зарегистрируйтесь чтобы добавить комментарий.
Обратная связь
Copyleft ©