↑↓torrent.by
Поиск
Логин: Регистрация
Пароль: Восстановить пароль

Жених из Майами (1994) HDTVRip-AVC от ExKinoRay

Скачать zhenih-iz-mayami-1994-hdtvrip-avc-ot-exkinoray.torrent
U Магнитная ссылка Размер: 2.16 GB Раздают: 32 Качают: 10 Добавлен: 2020-06-02 07:41:20
Жених из Майами (1994) HDTVRip-AVC от ExKinoRay

Название: Жених из Майами
Год выхода: 1994
Жанр: Комедия
Режиссер: Анатолий Эйрамджан
В ролях: Борис Щербаков, Михаил Державин, Татьяна Догилева, Вера Алентова, Лариса Удовиченко, Людмила Иванова, Роксана Бабаян, Татьяна Васильева, Дмитрий Харатьян, Екатерина Зинченко, Ольга Толстецкая, Ирина Феофанова, Нина Ильина, Инна Тимофеева, Марина Майко, Вера Зубкова, Кэрол Родригес, Лера Казакова, Оксана Шагдар, Наталья Гольденберг, Анатолий Ведёнкин, Леонид Якубович, Аркадий Гуральник, Лариса Полякова

О фильме:
Действие фильма происходит в начале девяностых годов двадцатого века. В Россию возвращается эмигрант Сергей, переехавший в Америку несколько лет назад. После того, как жена Сергея бросила его ради богатого американца, он решает найти себе в России новую невесту. Сергей останавливается у своего дяди, который активно помогает ему с поисками девушки. Но пока ни одна из кандидаток не устраивает придирчивого жениха из Майами.

Страна: Россия
Студия: Киностудия "Новый Одеон"
Продолжительность: 01:16:08
Язык: Русский

Файл
Формат: MKV
Качество: HDTVRip-AVC
Видео: MPEG-4 AVC, 1024x576, - 3860 Кбит/с
Аудио:  AC3, 2 ch, 192 Кбит/с
Субтитры: Нет


[+] MI
Общее
Уникальный идентификатор : 277867328581511725812791279334394323261 (0xD10B4D05B2D048AD17612F720FFE613D)
Полное имя : D:MOVIESZHenih.iz.Majami.1994.HDTVRip-AVC.ExKinoRay.mkv
Формат : Matroska
Версия формата : Version 4
Размер файла : 2,16 Гбайт
Продолжительность : 1 ч. 16 м.
Общий поток : 4 054 Кбит/сек
Дата кодирования : UTC 2020-06-01 04:44:57
Программа кодирования : mkvmerge v45.0.0 ('Heaven in Pennies') 64-bit
Библиотека кодирования : libebml v1.3.10 + libmatroska v1.5.2

Видео
Идентификатор : 1
Формат : AVC
Формат/Информация : Advanced Video Codec
Профиль формата : High@L4.1
Настройки формата : CABAC / 14 Ref Frames
Параметр CABAC формата : Да
Параметр RefFrames формата : 14 кадров
Идентификатор кодека : V_MPEG4/ISO/AVC
Продолжительность : 1 ч. 16 м.
Битрейт : 3 860 Кбит/сек
Ширина : 1 024 пикселя
Высота : 576 пикселей
Соотношение сторон : 16:9
Режим частоты кадров : Постоянный
Частота кадров : 25,000 кадров/сек
Цветовое пространство : YUV
Субдискретизация насыщенности : 4:2:0
Битовая глубина : 8 бит
Тип развёртки : Прогрессивная
Бит/(Пиксели*Кадры) : 0.262
Размер потока : 2,05 Гбайт (95%)
Библиотека кодирования : x264 core 160 r3000 33f9e14
Настройки программы : cabac=1 / ref=14 / deblock=1:-2:-2 / analyse=0x3:0x133 / me=umh / subme=10 / psy=1 / psy_rd=1.05:0.12 / mixed_ref=1 / me_range=32 / chroma_me=1 / trellis=2 / 8x8dct=1 / cqm=0 / deadzone=21,11 / fast_pskip=0 / chroma_qp_offset=-3 / threads=6 / lookahead_threads=1 / sliced_threads=0 / nr=0 / decimate=0 / interlaced=0 / bluray_compat=0 / constrained_intra=0 / bframes=12 / b_pyramid=2 / b_adapt=2 / b_bias=0 / direct=3 / weightb=1 / open_gop=0 / weightp=2 / keyint=250 / keyint_min=25 / scenecut=40 / intra_refresh=0 / rc=2pass / mbtree=0 / bitrate=3860 / ratetol=1.0 / qcomp=0.60 / qpmin=0 / qpmax=69 / qpstep=4 / cplxblur=20.0 / qblur=0.5 / ip_ratio=1.40 / pb_ratio=1.30 / aq=1:1.00
Язык : English
Default : Да
Forced : Нет
Цветовой диапазон : Limited
Основные цвета : BT.709
Характеристики трансфера : BT.709
Коэффициенты матрицы : BT.709

Аудио
Идентификатор : 2
Формат : AC-3
Формат/Информация : Audio Coding 3
Коммерческое название : Dolby Digital
Идентификатор кодека : A_AC3
Продолжительность : 1 ч. 16 м.
Вид битрейта : Постоянный
Битрейт : 192 Кбит/сек
Каналы : 2 канала
Channel layout : L R
Частота : 48,0 КГц
Частота кадров : 31,250 кадров/сек (1536 SPF)
Метод сжатия : С потерями
Размер потока : 105 Мбайт (5%)
Service kind : Complete Main
Default : Да
Forced : Нет



Скриншоты:
[+] Всего файлов в раздаче - 1:
ZHenih.iz.Majami.1994.HDTVRip-AVC.ExKinoRay.mkv2.16 GB

Отзывы
Зарегистрируйтесь чтобы добавить комментарий.
Обратная связь
Copyleft ©