↑↓torrent.by
Поиск
Логин: Регистрация
Пароль: Восстановить пароль

Убийства по открыткам / The Postcard Killings (2020) BDRip-AVC | iTunes

Скачать ubiystva-po-otkrytkam-the-postcard-killings-2020-bdrip-avc-itunes.torrent
U Магнитная ссылка Размер: 1.41 GB Раздают: 125 Качают: 43 Добавлен: 2020-06-05 18:45:35
Убийства по открыткам / The Postcard Killings (2020) BDRip-AVC | iTunes

Название: Убийства по открыткам
Оригинальное название: The Postcard Killings
Год выхода: 2020
Жанр: Детектив, криминал, драма
Режиссер: Данис Танович
В ролях: Джеффри Дин Морган, Фамке Янссен, Каш Джамбо, Йоахим Круль, Стивен Макинтош, Наоми Баттрик, Руаири О’Коннор, Эва Рёзе, Лукас Лугрэн, Дэнис О’Хэр

О фильме:
Лондон, Мадрид, Стокгольм… В Европе орудует жестокий и изощрённый маньяк-убийца. Перемещаясь из города в город, он дразнит полицию, посылая журналистам подсказки в виде открыток из музеев. Одной из его жертв становится дочь опытного и харизматичного детектива из Нью-Йорка, Джейкоба Кэнона. Теперь его цель — найти убийцу и отомстить.

Страна: Великобритания, США
Студия: Good Films, K. JAM Media, Lip Sync, Prescience Film Fund
Продолжительность: 01:44:09
Перевод:
• Профессиональный (полное дублирование) | iTunes

Файл
Качество: BDRip-AVC
Исходник: The.Postcard.Killings.2020.1080p.BluRay.REMUX.AVC.DTS-HD.MA5.1-iFT
Формат: MKV
Кодек: MPEG-4 AVC
Видео: 864x362 (2,40:1), 23,976 fps, MPEG-4 AVC ~ 1555 Kbps avg, 0.207 bit/pixel
Аудио: AC3, 48 kHz, 6 ch, ~384.00 kbps avg | русский | iTunes
Субтитры: Русские (Full)


[+] Инфо-файл
Общее
Уникальный идентификатор                 : 213018984769642047035051277301504942112 (0xA041F6D2796894D2915B6C9F894A2020)
Полное имя                               : The.Postcard.Killings.2020.BDRip.1.41Gb.x264.mkv
Формат                                   : Matroska
Версия формата                           : Version 4
Размер файла                             : 1,41 Гбайт
Продолжительность                        : 1 ч. 44 м.
Общий поток                              : 1 933 Кбит/сек
Название фильма                          : Убийства по открыткам / The Postcard Killings (2020)
Дата кодирования                         : UTC 2020-06-05 07:12:51
Программа кодирования                    : mkvmerge v47.0.0 ('Black Flag') 64-bit
Библиотека кодирования                   : libebml v1.3.10 + libmatroska v1.5.2
Обложка                                  : Yes
Attachments                              : cover.jpg

Видео
Идентификатор                            : 1
Формат                                   : AVC
Формат/Информация                        : Advanced Video Codec
Профиль формата                          : High@L4.1
Настройки формата                        : CABAC / 11 Ref Frames
Параметр CABAC формата                   : Да
Параметр RefFrames формата               : 11 кадров
Идентификатор кодека                     : V_MPEG4/ISO/AVC
Продолжительность                        : 1 ч. 44 м.
Битрейт                                  : 1 555 Кбит/сек
Ширина                                   : 864 пикселя
Высота                                   : 362 пикселя
Соотношение сторон                       : 2,40:1
Режим частоты кадров                     : Постоянный
Частота кадров                           : 23,976 кадра/сек
Цветовое пространство                    : YUV
Субдискретизация насыщенности            : 4:2:0
Битовая глубина                          : 8 бит
Тип развёртки                            : Прогрессивная
Бит/(Пиксели*Кадры)                      : 0.207
Размер потока                            : 1,13 Гбайт (80%)
Заголовок                                : #stillet
Библиотека кодирования                   : x264 core 152 r2851bm ba24899
Настройки программы                      : cabac=1 / ref=11 / deblock=1:-2:-2 / analyse=0x3:0x113 / me=umh / subme=11 / psy=1 / psy_rd=1.00:0.15 / mixed_ref=1 / me_range=32 / chroma_me=1 / trellis=2 / 8x8dct=1 / cqm=0 / deadzone=21,11 / fast_pskip=0 / chroma_qp_offset=-3 / threads=8 / lookahead_threads=3 / sliced_threads=0 / nr=0 / decimate=0 / interlaced=0 / bluray_compat=0 / constrained_intra=0 / bframes=10 / b_pyramid=2 / b_adapt=2 / b_bias=0 / direct=3 / weightb=1 / open_gop=0 / weightp=2 / keyint=240 / keyint_min=23 / scenecut=40 / intra_refresh=0 / rc=2pass / mbtree=0 / bitrate=1555 / ratetol=1.0 / qcomp=0.60 / qpmin=0 / qpmax=69 / qpstep=4 / cplxblur=20.0 / qblur=0.5 / ip_ratio=1.40 / pb_ratio=1.30 / aq=1:1.00
Язык                                     : English
Default                                  : Да
Forced                                   : Нет

Аудио
Идентификатор                            : 2
Формат                                   : AC-3
Формат/Информация                        : Audio Coding 3
Коммерческое название                    : Dolby Digital
Идентификатор кодека                     : A_AC3
Продолжительность                        : 1 ч. 44 м.
Вид битрейта                             : Постоянный
Битрейт                                  : 384 Кбит/сек
Каналы                                   : 6 каналов
Channel layout                           : L R C LFE Ls Rs
Частота                                  : 48,0 КГц
Частота кадров                           : 31,250 кадров/сек (1536 SPF)
Метод сжатия                             : С потерями
Размер потока                            : 286 Мбайт (20%)
Заголовок                                : iTunes
Язык                                     : Russian
Default                                  : Да
Forced                                   : Да

Текст
Идентификатор                            : 3
Формат                                   : UTF-8
Идентификатор кодека                     : S_TEXT/UTF8
Идентификатор кодека/Информация          : UTF-8 Plain Text
Продолжительность                        : 1 ч. 36 м.
Битрейт                                  : 102 бит/сек
Count of elements                        : 1320
Размер потока                            : 72,3 Кбайт (0%)
Заголовок                                : Full
Язык                                     : Russian
Default                                  : Да
Forced                                   : Нет

Меню
00:00:00.000                             : en:Chapter 01
00:10:55.196                             : en:Chapter 02
00:25:18.642                             : en:Chapter 03
00:36:15.673                             : en:Chapter 04
00:47:14.498                             : en:Chapter 05
00:58:21.998                             : en:Chapter 06
01:17:56.881                             : en:Chapter 07
01:37:36.267                             : en:Chapter 08




Скриншоты:
[+] Всего файлов в раздаче - 1:
The.Postcard.Killings.2020.BDRip.1.41Gb.x264.mkv1.41 GB

Показать еще раздачи по запросу убийства:
2020-06-07 U Убийства в Лотарингии / Meurtres en Lorraine / Убийства в... (2019) HDTVRip-AVC | ViruseProject 1.59 GB ↑ 162 ↓ 59
2020-06-06 U Убийства по открыткам / The Postcard Killings (2020) BDRip 1080p от селезень | iTunes 10.86 GB ↑ 243 ↓ 147
2020-06-05 U Убийства по открыткам / The Postcard Killings (2020) BDRip-AVC от ExKinoRay | iTunes 2.29 GB ↑ 169 ↓ 34
2020-06-05 U Убийства по открыткам / The Postcard Killings (2020) BDRip от MegaPeer | iTunes 1.46 GB ↑ 113 ↓ 43
2020-05-18 U Убийства по открыткам / The Postcard Killings (2020) BDRip | A 1.46 GB ↑ 111 ↓ 39
2020-05-07 U Убийства по открыткам / The Postcard Killings (2020) WEB-DLRip от MegaPeer | A 1.46 GB ↑ 141 ↓ 33
2020-05-04 U Убийства по открыткам / The Postcard Killings (2020) WEB-DLRip-AVC | A 743.42 MB ↑ 99 ↓ 30

Отзывы
Зарегистрируйтесь чтобы добавить комментарий.
Загрузите программу
  uTorrent.exe
Обратная связь
Copyleft ©