↑↓torrent.by
Поиск
Логин: Регистрация
Пароль: Восстановить пароль

Убийства по открыткам / The Postcard Killings (2020) BDRip-AVC от ExKinoRay | iTunes

Скачать ubiystva-po-otkrytkam-the-postcard-killings-2020-bdrip-avc-ot-exkinoray-itunes.torrent
U Магнитная ссылка Размер: 2.29 GB Раздают: 169 Качают: 34 Добавлен: 2020-06-05 18:45:41
Убийства по открыткам / The Postcard Killings (2020) BDRip-AVC от ExKinoRay | iTunes

Название: Убийства по открыткам
Оригинальное название: The Postcard Killings
Год выхода: 2020
Жанр: Детектив, криминал, драма
Режиссер: Данис Танович
В ролях: Иванович Дин Морган, Фамке Янссен, Каш Джамбо, Йоахим Круль, Стивен Макинтош, Наоми Баттрик, Руаири О’Коннор, Эва Рёзе, Лукас Лугрэн, Дэнис О’Хэр

О фильме:
Лондон, Мадрид, Стокгольм… В Европе орудует жестокий и изощрённый маньяк-убийца. Перемещаясь из города в город, он дразнит полицию, посылая журналистам подсказки в виде открыток из музеев. Одной из его жертв становится дочь опытного и харизматичного детектива из Нью-Йорка, Джейкоба Кэнона. Теперь его цель — найти убийцу и отомстить.

Страна: Великобритания, США
Студия: Good Films Collective, K. JAM Media
Продолжительность: 01:44:08
Перевод: Дублированный | iTunes

Файл
Формат: MKV
Качество: BDRip-AVC
Видео: MPEG-4 AVC, 2313 Кбит/с, 1024x432
Аудио 1: Русский (AC3, 6 ch, 384 Кбит/с) DUB (iTunes)
Аудио 2: Английский (AC3, 6 ch, 448 Кбит/с) Original
Субтитры: Русские, английские

Семпл

Релиз:


[+] M/I

Общее
Уникальный идентификатор : 176725694539564829437952510903449049276 (0x84F42175ECB87E67AC123D2C129858BC)
Полное имя : D:РаздачаUbiyistvo.Po.Otkrytkam.2020.D.BDRip-AVC.ExKinoRay.mkv
Формат : Matroska
Версия формата : Version 4 / Version 2
Размер файла : 2,29 Гбайт
Продолжительность : 1 ч. 44 м.
Общий поток : 3147 Кбит/сек
Название фильма : The Postcard Killings.2020.BDRip-AVC.grab777 & ExKinoRay
Дата кодирования : UTC 2020-06-05 07:37:20
Программа кодирования : mkvmerge v7.3.0 ('Nouages') 64bit built on Oct 22 2014 18:53:34
Библиотека кодирования : libebml v1.3.0 + libmatroska v1.4.1

Видео
Идентификатор : 1
Формат : AVC
Формат/Информация : Advanced Video Codec
Профиль формата : High@L4.1
Настройки формата : CABAC / 12 Ref Frames
Параметр CABAC формата : Да
Параметр RefFrames формата : 12 кадров
Идентификатор кодека : V_MPEG4/ISO/AVC
Продолжительность : 1 ч. 44 м.
Битрейт : 2313 Кбит/сек
Ширина : 1024 пикселя
Высота : 432 пикселя
Соотношение сторон : 2,40:1
Соотношение сторон в оригинале : 2,40:1
Режим частоты кадров : Постоянный
Частота кадров : 23,976 (24000/1001) кадра/сек
Цветовое пространство : YUV
Субдискретизация насыщенности : 4:2:0
Битовая глубина : 8 бит
Тип развёртки : Прогрессивная
Бит/(Пиксели*Кадры) : 0.218
Размер потока : 1,68 Гбайт (73%)
Заголовок : Rip by grab777
Библиотека кодирования : x264 core 148 r2665M a01e339
Настройки программы : cabac=1 / ref=12 / deblock=1:-2:-2 / analyse=0x3:0x113 / me=umh / subme=10 / psy=1 / psy_rd=1.00:0.15 / mixed_ref=1 / me_range=32 / chroma_me=1 / trellis=2 / 8x8dct=1 / cqm=0 / deadzone=21,11 / fast_pskip=1 / chroma_qp_offset=-3 / threads=5 / lookahead_threads=1 / sliced_threads=0 / nr=0 / decimate=1 / interlaced=0 / bluray_compat=0 / constrained_intra=0 / bframes=10 / b_pyramid=2 / b_adapt=2 / b_bias=0 / direct=3 / weightb=1 / open_gop=0 / weightp=2 / keyint=230 / keyint_min=23 / scenecut=40 / intra_refresh=0 / rc_lookahead=40 / rc=crf / mbtree=0 / crf=19.0 / qcomp=0.60 / qpmin=0 / qpmax=69 / qpstep=4 / vbv_maxrate=30000 / vbv_bufsize=40000 / crf_max=0.0 / nal_hrd=none / filler=0 / ip_ratio=1.40 / pb_ratio=1.30 / aq=1:1.00
Язык : English
Default : Да
Forced : Нет

Аудио #1
Идентификатор : 2
Формат : AC-3
Формат/Информация : Audio Coding 3
Параметр Endianness формата : Big
Идентификатор кодека : A_AC3
Продолжительность : 1 ч. 44 м.
Вид битрейта : Постоянный
Битрейт : 384 Кбит/сек
Каналы : 6 каналов
Расположение каналов : Front: L C R, Side: L R, LFE
Частота : 48,0 КГц
Частота кадров : 31,250 кадров/сек (1536 SPF)
Битовая глубина : 16 бит
Метод сжатия : С потерями
Размер потока : 286 Мбайт (12%)
Заголовок : DUB (iTunes)
Язык : Russian  
Default : Да
Forced : Да

Аудио #2
Идентификатор : 3
Формат : AC-3
Формат/Информация : Audio Coding 3
Параметр Endianness формата : Big
Идентификатор кодека : A_AC3
Продолжительность : 1 ч. 44 м.
Вид битрейта : Постоянный
Битрейт : 448 Кбит/сек
Каналы : 6 каналов
Расположение каналов : Front: L C R, Side: L R, LFE
Частота : 48,0 КГц
Частота кадров : 31,250 кадров/сек (1536 SPF)
Битовая глубина : 16 бит
Метод сжатия : С потерями
Размер потока : 334 Мбайт (14%)
Заголовок : Original
Язык : English
Default : Нет
Forced : Нет

Текст #1
Идентификатор : 4
Формат : UTF-8
Идентификатор кодека : S_TEXT/UTF8
Идентификатор кодека/Информация : UTF-8 Plain Text
Продолжительность : 1 ч. 36 м.
Битрейт : 102 бит/сек
ElementCount : 1320
Размер потока : 72,3 Кбайт (0%)
Заголовок : Full
Язык : Russian
Default : Нет
Forced : Нет

Текст #2
Идентификатор : 5
Формат : UTF-8
Идентификатор кодека : S_TEXT/UTF8
Идентификатор кодека/Информация : UTF-8 Plain Text
Продолжительность : 1 ч. 39 м.
Битрейт : 56 бит/сек
ElementCount : 1297
Размер потока : 41,2 Кбайт (0%)
Язык : English
Default : Нет
Forced : Нет

Меню
00:00:00.000 : :Chapter 01
00:10:55.196 : :Chapter 02
00:25:18.642 : :Chapter 03
00:36:15.673 : :Chapter 04
00:47:14.498 : :Chapter 05
00:58:21.998 : :Chapter 06
01:17:56.880 : :Chapter 07
01:37:36.267 : :Chapter 08



Скриншоты:
[+] Всего файлов в раздаче - 1:
Ubiyistvo.Po.Otkrytkam.2020.D.BDRip-AVC.ExKinoRay.mkv2.29 GB

Показать еще раздачи по запросу убийства:
2020-06-07 U Убийства в Лотарингии / Meurtres en Lorraine / Убийства в... (2019) HDTVRip-AVC | ViruseProject 1.59 GB ↑ 162 ↓ 59
2020-06-06 U Убийства по открыткам / The Postcard Killings (2020) BDRip 1080p от селезень | iTunes 10.86 GB ↑ 243 ↓ 147
2020-06-05 U Убийства по открыткам / The Postcard Killings (2020) BDRip-AVC | iTunes 1.41 GB ↑ 125 ↓ 43
2020-06-05 U Убийства по открыткам / The Postcard Killings (2020) BDRip от MegaPeer | iTunes 1.46 GB ↑ 113 ↓ 43
2020-05-18 U Убийства по открыткам / The Postcard Killings (2020) BDRip | A 1.46 GB ↑ 111 ↓ 39
2020-05-07 U Убийства по открыткам / The Postcard Killings (2020) WEB-DLRip от MegaPeer | A 1.46 GB ↑ 141 ↓ 33
2020-05-04 U Убийства по открыткам / The Postcard Killings (2020) WEB-DLRip-AVC | A 743.42 MB ↑ 99 ↓ 30

Отзывы
Зарегистрируйтесь чтобы добавить комментарий.
Загрузите программу
  uTorrent.exe
Обратная связь
Copyleft ©