↑↓torrent.by
Поиск
Логин: Регистрация
Пароль: Восстановить пароль

Убийства по открыткам / The Postcard Killings (2020) BDRip 1080p от селезень | iTunes

Скачать ubiystva-po-otkrytkam-the-postcard-killings-2020-bdrip-1080p-ot-selezen-itunes.torrent
U Магнитная ссылка Размер: 10.86 GB Раздают: 243 Качают: 147 Добавлен: 2020-06-06 07:49:55
Убийства по открыткам / The Postcard Killings (2020) BDRip 1080p от селезень | iTunes

Название: Убийства по открыткам
Оригинальное название: The Postcard Killings
Год выхода: 2020
Жанр: Детектив, криминал, драма
Режиссер: Данис Танович
В ролях: Джеффри Дин Морган, Фамке Янссен, Каш Джамбо, Йоахим Круль, Стивен Макинтош, Наоми Баттрик, Руаири О’Коннор, Эва Рёзе, Лукас Лугрэн, Дэнис О’Хэр

О фильме: Лондон, Мадрид, Стокгольм… В Европе орудует жестокий и изощрённый маньяк-убийца. Перемещаясь из города в город, он дразнит полицию, посылая журналистам подсказки в виде открыток из музеев. Одной из его жертв становится дочь опытного и харизматичного детектива из Нью-Йорка, Джейкоба Кэнона. Теперь его цель — найти убийцу и отомстить.

Страна: Великобритания, США
Студия: Good Films Collective, K. JAM Media
Продолжительность: 01:44:08
Перевод: Дублированный | iTunes

Качество: BDRip 1080p
Видео: MPEG-4 AVC, 1920x804, 13.9 Mbit/s, 23.976 fps
Аудио #01: 48 kHz, AC3, 5.1, 384 Kbps | iTunes | RUS |
Аудио #02: 48 kHz, AC3, 5.1, 640 Kbps | Оригинал |  ENG |
Субтитры: Русские (Full), английские

Релиз:


[+] MI
General
Unique ID                   : 227959795778333601845783098196271696314 (0xAB7F75ADA08914B861395A7E7CBA09BA)
Complete name               : E:Video111The.Postcard.Killings.2020.BDRip.1080p.seleZen.mkv
Format                      : Matroska
Format version              : Version 4
File size                   : 10.9 GiB
Duration                    : 1 h 44 min
Overall bit rate            : 14.9 Mb/s
Movie name                  : The Postcard Killings 2020 from селезень
Encoded date                : UTC 2020-06-05 13:22:27
Writing application         : mkvmerge v40.0.0 ('Old Town Road + Pony') 64-bit
Writing library             : libebml v1.3.9 + libmatroska v1.5.2

Video
ID                          : 1
Format                      : AVC
Format/Info                 : Advanced Video Codec
Format profile              : High@L4.1
Format settings             : CABAC / 5 Ref Frames
Format settings, CABAC      : Yes
Format settings, Reference  : 5 frames
Codec ID                    : V_MPEG4/ISO/AVC
Duration                    : 1 h 44 min
Bit rate                    : 13.9 Mb/s
Width                       : 1 920 pixels
Height                      : 804 pixels
Display aspect ratio        : 2.40:1
Frame rate mode             : Constant
Frame rate                  : 23.976 (24000/1001) FPS
Color space                 : YUV
Chroma subsampling          : 4:2:0
Bit depth                   : 8 bits
Scan type                   : Progressive
Bits/(Pixel*Frame)          : 0.376
Stream size                 : 10.1 GiB (93%)
Writing library             : x264 core 160 r3000+53 e3e4c3e t_mod_New [(8 & 10)-bit@all X86_64]
Encoding settings           : cabac=1 / ref=5 / deblock=1:-3:-3 / analyse=0x3:0x133 / me=umh / subme=10 / psy=1 / fade_compensate=0.00 / psy_rd=1.00:0.00 / mixed_ref=1 / me_range=32 / chroma_me=1 / trellis=2 / 8x8dct=1 / cqm=0 / deadzone=21,11 / fast_pskip=0 / chroma_qp_offset=-2 / threads=16 / lookahead_threads=4 / sliced_threads=0 / nr=0 / decimate=0 / interlaced=0 / bluray_compat=0 / constrained_intra=0 / fgo=0 / bframes=12 / b_pyramid=2 / b_adapt=2 / b_bias=0 / direct=3 / weightb=1 / open_gop=0 / weightp=2 / keyint=480 / keyint_min=24 / scenecut=40 / intra_refresh=0 / rc_lookahead=80 / rc=crf / mbtree=0 / crf=18.0000 / qcomp=0.60 / qpmin=0:0:0 / qpmax=69:69:69 / qpstep=4 / vbv_maxrate=62500 / vbv_bufsize=78125 / crf_max=0.0 / nal_hrd=none / filler=0 / ip_ratio=1.30 / pb_ratio=1.20 / aq=3:0.80 / aq-sensitivity=10.00 / aq-factor=1.00:1.00:1.00 / aq2=0 / aq3=0
Language                    : English
Default                     : Yes
Forced                      : No
Color range                 : Limited
Color primaries             : BT.709
Transfer characteristics    : BT.709
Matrix coefficients         : BT.709

Audio #1
ID                          : 2
Format                      : AC-3
Format/Info                 : Audio Coding 3
Commercial name             : Dolby Digital
Codec ID                    : A_AC3
Duration                    : 1 h 44 min
Bit rate mode               : Constant
Bit rate                    : 384 kb/s
Channel(s)                  : 6 channels
Channel layout              : L R C LFE Ls Rs
Sampling rate               : 48.0 kHz
Frame rate                  : 31.250 FPS (1536 SPF)
Compression mode            : Lossy
Stream size                 : 286 MiB (3%)
Title                       : iTunes
Language                    : Russian
Service kind                : Complete Main
Default                     : Yes
Forced                      : Yes

Audio #2
ID                          : 3
Format                      : AC-3
Format/Info                 : Audio Coding 3
Commercial name             : Dolby Digital
Codec ID                    : A_AC3
Duration                    : 1 h 44 min
Bit rate mode               : Constant
Bit rate                    : 640 kb/s
Channel(s)                  : 6 channels
Channel layout              : L R C LFE Ls Rs
Sampling rate               : 48.0 kHz
Frame rate                  : 31.250 FPS (1536 SPF)
Compression mode            : Lossy
Stream size                 : 477 MiB (4%)
Title                       : Original
Language                    : English
Service kind                : Complete Main
Default                     : No
Forced                      : No

Text #1
ID                          : 4
Format                      : UTF-8
Codec ID                    : S_TEXT/UTF8
Codec ID/Info               : UTF-8 Plain Text
Duration                    : 1 h 36 min
Bit rate                    : 102 b/s
Count of elements           : 1320
Stream size                 : 72.3 KiB (0%)
Title                       : Full
Language                    : Russian
Default                     : No
Forced                      : No

Text #2
ID                          : 5
Format                      : UTF-8
Codec ID                    : S_TEXT/UTF8
Codec ID/Info               : UTF-8 Plain Text
Duration                    : 1 h 39 min
Bit rate                    : 56 b/s
Count of elements           : 1297
Stream size                 : 41.2 KiB (0%)
Title                       : SDH
Language                    : English
Default                     : No
Forced                      : No

Menu
00:00:00.000                : en:Chapter 1
00:10:55.196                : en:Chapter 2
00:25:18.642                : en:Chapter 3
00:36:15.673                : en:Chapter 4
00:47:14.498                : en:Chapter 5
00:58:21.998                : en:Chapter 6
01:17:56.881                : en:Chapter 7
01:37:36.267                : en:Chapter 8



Скриншоты:
[+] Всего файлов в раздаче - 1:
The.Postcard.Killings.2020.BDRip.1080p.seleZen.mkv10.86 GB

Показать еще раздачи по запросу убийства:
2020-06-07 U Убийства в Лотарингии / Meurtres en Lorraine / Убийства в... (2019) HDTVRip-AVC | ViruseProject 1.59 GB ↑ 162 ↓ 59
2020-06-05 U Убийства по открыткам / The Postcard Killings (2020) BDRip-AVC от ExKinoRay | iTunes 2.29 GB ↑ 169 ↓ 34
2020-06-05 U Убийства по открыткам / The Postcard Killings (2020) BDRip-AVC | iTunes 1.41 GB ↑ 125 ↓ 43
2020-06-05 U Убийства по открыткам / The Postcard Killings (2020) BDRip от MegaPeer | iTunes 1.46 GB ↑ 113 ↓ 43
2020-05-18 U Убийства по открыткам / The Postcard Killings (2020) BDRip | A 1.46 GB ↑ 111 ↓ 39
2020-05-07 U Убийства по открыткам / The Postcard Killings (2020) WEB-DLRip от MegaPeer | A 1.46 GB ↑ 141 ↓ 33
2020-05-04 U Убийства по открыткам / The Postcard Killings (2020) WEB-DLRip-AVC | A 743.42 MB ↑ 99 ↓ 30

Отзывы
Зарегистрируйтесь чтобы добавить комментарий.
Загрузите программу
  uTorrent.exe
Обратная связь
Copyleft ©