↑↓torrent.by
Поиск
Логин: Регистрация
Пароль: Восстановить пароль

Пиноккио / Pinocchio (2019) BDRip 1080p | Sub

Скачать pinokkio-pinocchio-2019-bdrip-1080p-sub.torrent
U Магнитная ссылка Размер: 8.91 GB Раздают: 184 Качают: 75 Добавлен: 2020-06-06 07:49:59
Пиноккио / Pinocchio (2019) BDRip 1080p | Sub

Название: Пиноккио
Оригинальное название: Pinocchio
Год выхода: 2019
Жанр: Фэнтези, драма
Режиссер: Маттео Гарроне
В ролях: Роберто Бениньи, Федерико Иелапи, Рокко Папалео, Массимо Чеккерини, Марин Вакт, Джиджи Пройетти, Алида Бальдари Калабрия, Алессио Ди Доменикантонио, Мария Пиа Тимо, Давиде Маротта

О фильме:
Одинокий нищий столяр Джеппетто, сидящий без работы в провинциальном городке, решает смастерить куклу. Знакомый дарит ему подозрительное полено, и вот на свет появляется Пиноккио, деревянный мальчик, которого счастливый Джеппетто объявляет своим сыном... Невероятное путешествие в мир удивительных созданий и волшебства, где даже деревянная кукла может стать настоящим человеком, если пожелает этого чистым сердцем.

Страна: Италия, Франция, Великобритания
Студия: Apulia Film Commission, Canal+ [fr], Lazio Cinema International, Recorded Picture Company
Продолжительность: 02:05:00
Перевод: Субтитры

Файл
Кодек: x.264
Качество: BDRip 1080p | Pinocchio.2019.1080p.BluRay.DD5.1.x264-BdC
Видео: MPEG-4 AVC, 9549 Kбит/с, 1920x804, 24.000 кадр/с
Аудио #1: Итальянский (АС3, 6 ch, 640 Кбит/с, 48.0 KHz)
Субтитры: Русские (полные), английские, итальянские
► Без Рекламы!
Трейлер




[+] MediaInfo
Источник: Pinocchio.2019.1080p.BluRay.DD5.1.x264-BdC
General
Unique ID                      : 201326164263891119084475798648535323548 (0x97760242F964ED07BC8F5445B2BF139C)
Complete name                  : Pinocchio.2019.BDRip.1080p.Sub.Rus.mkv
Format                         : Matroska
Format version                 : Version 4
File size                      : 8.91 GiB
Duration                       : 2 h 4 min
Overall bit rate               : 10.2 Mb/s
Encoded date                   : UTC 2020-06-05 09:42:32
Writing application            : mkvmerge v7.1.0 ('Good Love') 64bit built on Jul 27 2014 13:06:55
Writing library                : libebml v1.3.0 + libmatroska v1.4.1

Video
ID                             : 1
Format                         : AVC
Format/Info                    : Advanced Video Codec
Format profile                 : High@L4.1
Format settings                : CABAC / 5 Ref Frames
Format settings, CABAC         : Yes
Format settings, Reference fra : 5 frames
Codec ID                       : V_MPEG4/ISO/AVC
Duration                       : 2 h 4 min
Bit rate                       : 9 549 kb/s
Width                          : 1 920 pixels
Height                         : 804 pixels
Display aspect ratio           : 2.40:1
Frame rate mode                : Constant
Frame rate                     : 24.000 FPS
Color space                    : YUV
Chroma subsampling             : 4:2:0
Bit depth                      : 8 bits
Scan type                      : Progressive
Bits/(Pixel*Frame)             : 0.258
Stream size                    : 8.34 GiB (94%)
Writing library                : x264 core 160 r3000 33f9e14
Encoding settings              : cabac=1 / ref=5 / deblock=1:-3:-3 / analyse=0x3:0x133 / me=umh / subme=11 / psy=1 / psy_rd=1.05:0.00 / mixed_ref=1 / me_range=32 / chroma_me=1 / trellis=2 / 8x8dct=1 / cqm=0 / deadzone=21,11 / fast_pskip=0 / chroma_qp_offset=-2 / threads=12 / lookahead_threads=2 / sliced_threads=0 / nr=0 / decimate=0 / interlaced=0 / bluray_compat=0 / constrained_intra=0 / bframes=9 / b_pyramid=2 / b_adapt=2 / b_bias=0 / direct=3 / weightb=1 / open_gop=0 / weightp=2 / keyint=240 / keyint_min=24 / scenecut=40 / intra_refresh=0 / rc_lookahead=60 / rc=2pass / mbtree=0 / bitrate=9549 / ratetol=1.0 / qcomp=0.65 / qpmin=0 / qpmax=69 / qpstep=4 / cplxblur=20.0 / qblur=0.5 / vbv_maxrate=50000 / vbv_bufsize=62500 / nal_hrd=none / filler=0 / ip_ratio=1.40 / pb_ratio=1.30 / aq=3:0.80
Language                       : English
Default                        : Yes
Forced                         : No
Color range                    : Limited
Color primaries                : BT.709
Transfer characteristics       : BT.709
Matrix coefficients            : BT.709

Audio
ID                             : 2
Format                         : AC-3
Format/Info                    : Audio Coding 3
Commercial name                : Dolby Digital
Codec ID                       : A_AC3
Duration                       : 2 h 4 min
Bit rate mode                  : Constant
Bit rate                       : 640 kb/s
Channel(s)                     : 6 channels
Channel layout                 : L R C LFE Ls Rs
Sampling rate                  : 48.0 kHz
Frame rate                     : 31.250 FPS (1536 SPF)
Compression mode               : Lossy
Stream size                    : 572 MiB (6%)
Language                       : Italian
Service kind                   : Complete Main
Default                        : Yes
Forced                         : No

Text #1
ID                             : 3
Format                         : UTF-8
Codec ID                       : S_TEXT/UTF8
Codec ID/Info                  : UTF-8 Plain Text
Duration                       : 1 h 56 min
Bit rate                       : 83 b/s
Count of elements              : 1298
Stream size                    : 70.9 KiB (0%)
Title                          : Full
Language                       : Russian
Default                        : Yes
Forced                         : No

Text #2
ID                             : 4
Format                         : UTF-8
Codec ID                       : S_TEXT/UTF8
Codec ID/Info                  : UTF-8 Plain Text
Duration                       : 1 h 54 min
Bit rate                       : 49 b/s
Count of elements              : 1298
Stream size                    : 41.7 KiB (0%)
Language                       : English
Default                        : No
Forced                         : No

Text #3
ID                             : 5
Format                         : PGS
Muxing mode                    : zlib
Codec ID                       : S_HDMV/PGS
Codec ID/Info                  : Picture based subtitle format used on BDs/HD-DVDs
Duration                       : 1 h 55 min
Bit rate                       : 10.8 kb/s
Count of elements              : 2728
Stream size                    : 8.95 MiB (0%)
Language                       : Italian
Default                        : No
Forced                         : No

Menu
00:00:00.000                   : en:00:00:00.000
00:10:24.000                   : en:00:10:24.000
00:20:41.708                   : en:00:20:41.708
00:31:29.250                   : en:00:31:29.250
00:41:29.958                   : en:00:41:29.958
00:51:46.792                   : en:00:51:46.792
01:01:43.833                   : en:01:01:43.833
01:13:06.500                   : en:01:13:06.500
01:23:58.917                   : en:01:23:58.917
01:33:31.917                   : en:01:33:31.917
01:44:55.667                   : en:01:44:55.667
01:53:57.458                   : en:01:53:57.458



Скриншоты:
[+] Всего файлов в раздаче - 1:
Pinocchio.2019.BDRip.1080p.Sub.Rus.mkv8.91 GB

Похожие раздачи по запросу - пиноккио:
2020-06-11 U Пиноккио / Pinocchio (2019) BDRip от Twister & ExKinoRay | iTunes 2.13 GB ↑ 51 ↓ 4
2020-06-11 U Пиноккио / Pinocchio (2019) BDRip от Twister & ExKinoRay | iTunes 1.46 GB ↑ 107 ↓ 21
2020-06-10 U Пиноккио / Pinocchio (2019) BDRip от MegaPeer | iTunes 2.13 GB ↑ 149 ↓ 46
2020-06-10 U Пиноккио / Pinocchio (2019) BDRip 720p от селезень | iTunes 5.76 GB ↑ 186 ↓ 134
2020-06-10 U Пиноккио / Pinocchio (2019) BDRip 1080p от селезень | iTunes 9.61 GB ↑ 390 ↓ 179
2020-06-10 U Пиноккио / Pinocchio (2019) BDRip от MegaPeer | iTunes 1.46 GB ↑ 351 ↓ 113

Отзывы
Vov801 Оценка: 4
явно на западе с психикой проблемы .

Зарегистрируйтесь чтобы добавить комментарий.
Загрузите программу
  uTorrent.exe
Обратная связь
Copyleft ©