↑↓torrent.by
Поиск
Логин: Регистрация
Пароль: Восстановить пароль

Пиноккио / Pinocchio (2019) BDRip 1080p от селезень | iTunes

Скачать pinokkio-pinocchio-2019-bdrip-1080p-ot-selezen-itunes.torrent
U Магнитная ссылка Размер: 9.61 GB Раздают: 389 Качают: 179 Добавлен: 2020-06-10 07:44:26
Пиноккио / Pinocchio (2019) BDRip 1080p от селезень | iTunes

Название: Пиноккио
Оригинальное название: Pinocchio
Год выхода: 2019
Жанр: Фэнтези
Режиссер: Маттео Гарроне
В ролях: Роберто Бениньи, Федерико Иелапи, Рокко Папалео, Массимо Чеккерини, Марин Вакт, Джиджи Пройетти, Алида Бальдари Калабрия, Алессио Ди Доменикантонио, Мария Пиа Тимо, Давиде Маротта

О фильме: Одинокий нищий столяр Джеппетто, сидящий без работы в провинциальном городке, решает смастерить куклу. Знакомый дарит ему подозрительное полено, и вот на свет появляется Пиноккио, деревянный мальчик, которого счастливый Джеппетто объявляет своим сыном... Невероятное путешествие в мир удивительных созданий и волшебства, где даже деревянная кукла может стать настоящим человеком, если пожелает этого чистым сердцем.

Страна: Италия, Франция, Великобритания
Студия: Archimede, Rai Cinema, Le Pacte
Продолжительность: 02:04:59
Перевод: Дублированный | iTunes

Качество: BDRip 1080p
Видео: MPEG-4 AVC, 1920x804, 10.6 Mbit/s, 24.000 fps
Аудио: 48 kHz, AC3, 5.1, 384 Kbps | iTunes | RUS |
Субтитры: Русские (Full), английские

Релиз:


[+] MI
General
Unique ID                   : 252083962634205078763288246171340735354 (0xBDA59AEF48FC4C027BB25D7E536D837A)
Complete name               : E:Video111BackupPinocchio.2019.BDRip.1080p.seleZen.mkv
Format                      : Matroska
Format version              : Version 4
File size                   : 9.61 GiB
Duration                    : 2 h 4 min
Overall bit rate            : 11.0 Mb/s
Movie name                  : Pinocchio 2019 from селезень
Encoded date                : UTC 2020-06-09 19:00:33
Writing application         : mkvmerge v40.0.0 ('Old Town Road + Pony') 64-bit
Writing library             : libebml v1.3.9 + libmatroska v1.5.2
Cover                       : Yes
Attachments                 : cover.jpg

Video
ID                          : 1
Format                      : AVC
Format/Info                 : Advanced Video Codec
Format profile              : High@L4.1
Format settings             : CABAC / 5 Ref Frames
Format settings, CABAC      : Yes
Format settings, Reference  : 5 frames
Codec ID                    : V_MPEG4/ISO/AVC
Duration                    : 2 h 4 min
Bit rate                    : 10.6 Mb/s
Width                       : 1 920 pixels
Height                      : 804 pixels
Display aspect ratio        : 2.40:1
Frame rate mode             : Constant
Frame rate                  : 24.000 FPS
Color space                 : YUV
Chroma subsampling          : 4:2:0
Bit depth                   : 8 bits
Scan type                   : Progressive
Bits/(Pixel*Frame)          : 0.287
Stream size                 : 9.28 GiB (96%)
Title                       : -EA
Writing library             : x264 core 160 r3000+53 e3e4c3e t_mod_New [(8 & 10)-bit@all X86_64]
Encoding settings           : cabac=1 / ref=5 / deblock=1:-3:-3 / analyse=0x3:0x133 / me=umh / subme=10 / psy=1 / fade_compensate=0.00 / psy_rd=0.95:0.00 / mixed_ref=1 / me_range=32 / chroma_me=1 / trellis=2 / 8x8dct=1 / cqm=0 / deadzone=21,11 / fast_pskip=0 / chroma_qp_offset=-2 / threads=18 / lookahead_threads=3 / sliced_threads=0 / nr=0 / decimate=0 / interlaced=0 / bluray_compat=0 / constrained_intra=0 / fgo=0 / bframes=9 / b_pyramid=2 / b_adapt=2 / b_bias=0 / direct=3 / weightb=1 / open_gop=0 / weightp=2 / keyint=240 / keyint_min=24 / scenecut=40 / intra_refresh=0 / rc_lookahead=60 / rc=crf / mbtree=0 / crf=15.0000 / qcomp=0.65 / qpmin=0:0:0 / qpmax=69:69:69 / qpstep=4 / vbv_maxrate=62500 / vbv_bufsize=78125 / crf_max=0.0 / nal_hrd=none / filler=0 / ip_ratio=1.35 / pb_ratio=1.25 / aq=3:0.85 / aq-sensitivity=10.00 / aq-factor=1.00:1.00:1.00 / aq2=0 / aq3=0
Language                    : Italian
Default                     : Yes
Forced                      : No
Color range                 : Limited
Color primaries             : BT.709
Transfer characteristics    : BT.709
Matrix coefficients         : BT.709

Audio
ID                          : 2
Format                      : AC-3
Format/Info                 : Audio Coding 3
Commercial name             : Dolby Digital
Codec ID                    : A_AC3
Duration                    : 2 h 4 min
Bit rate mode               : Constant
Bit rate                    : 384 kb/s
Channel(s)                  : 6 channels
Channel layout              : L R C LFE Ls Rs
Sampling rate               : 48.0 kHz
Frame rate                  : 31.250 FPS (1536 SPF)
Compression mode            : Lossy
Stream size                 : 343 MiB (3%)
Title                       : iTunes
Language                    : Russian
Service kind                : Complete Main
Default                     : Yes
Forced                      : Yes

Text #1
ID                          : 3
Format                      : UTF-8
Codec ID                    : S_TEXT/UTF8
Codec ID/Info               : UTF-8 Plain Text
Duration                    : 1 h 54 min
Bit rate                    : 94 b/s
Count of elements           : 1553
Stream size                 : 79.3 KiB (0%)
Title                       : Full
Language                    : Russian
Default                     : No
Forced                      : No

Text #2
ID                          : 4
Format                      : UTF-8
Codec ID                    : S_TEXT/UTF8
Codec ID/Info               : UTF-8 Plain Text
Duration                    : 1 h 54 min
Bit rate                    : 49 b/s
Count of elements           : 1298
Stream size                 : 41.7 KiB (0%)
Language                    : English
Default                     : No
Forced                      : No

Menu
00:00:00.000                : :Chapter 1
00:10:24.000                : :Chapter 2
00:20:41.708                : :Chapter 3
00:31:29.250                : :Chapter 4
00:41:29.958                : :Chapter 5
00:51:46.792                : :Chapter 6
01:01:43.833                : :Chapter 7
01:13:06.500                : :Chapter 8
01:23:58.917                : :Chapter 9
01:33:31.917                : :Chapter 10
01:44:55.667                : :Chapter 11
01:53:57.458                : :Chapter 12



Скриншоты:
[+] Всего файлов в раздаче - 1:
Pinocchio.2019.BDRip.1080p.seleZen.mkv9.61 GB

Похожие раздачи по запросу - пиноккио:
2020-06-11 U Пиноккио / Pinocchio (2019) BDRip от Twister & ExKinoRay | iTunes 2.13 GB ↑ 51 ↓ 4
2020-06-11 U Пиноккио / Pinocchio (2019) BDRip от Twister & ExKinoRay | iTunes 1.46 GB ↑ 107 ↓ 21
2020-06-10 U Пиноккио / Pinocchio (2019) BDRip от MegaPeer | iTunes 2.13 GB ↑ 149 ↓ 46
2020-06-10 U Пиноккио / Pinocchio (2019) BDRip 720p от селезень | iTunes 5.76 GB ↑ 186 ↓ 134
2020-06-10 U Пиноккио / Pinocchio (2019) BDRip от MegaPeer | iTunes 1.46 GB ↑ 351 ↓ 113
2020-06-06 U Пиноккио / Pinocchio (2019) BDRip 1080p | Sub 1К8.91 GB ↑ 184 ↓ 75

Отзывы
Зарегистрируйтесь чтобы добавить комментарий.
Загрузите программу
  uTorrent.exe
Обратная связь
Copyleft ©