↑↓torrent.by
Поиск
Логин: Регистрация
Пароль: Восстановить пароль

Агент Лев / Le lion (2020) WEB-DL 1080p | L

Скачать agent-lev-le-lion-2020-web-dl-1080p-l.torrent
U Магнитная ссылка Размер: 3.43 GB Раздают: 36 Качают: 25 Добавлен: 2020-06-15 05:13:27
Агент Лев / Le lion (2020) WEB-DL 1080p | L

Название: Агент Лев
Оригинальное название: Le lion
Год выхода: 2020
Жанр: Комедия
Режиссер: Людовик Кольбо-Жюстен
В ролях: Дэни Бун, Филипп Катрин, Энни Серра, Самуэль Жуи, Софи Вербек, Кароль Брана, Бенуа Петре, Аксель Устун, Матью Ларду, Оливье Са, Антуан Матьё, Гийом Клемансен, Александр Маруани, Стана Румийяк, Владимир Хубар, Кристиан Диаз

О фильме:
Психиатр пытается понять, в чём проблема его нового пациента: тот утверждает, что он секретный шпион международного уровня по кличке Агент Лев. Но когда на глазах доктора похищают его невесту, ему ничего не остаётся, как обратиться за помощью к этому странному «спецагенту».

Страна: Франция, Бельгия
Студия: Monkey Pack Films, TF1 Studio, Monkey Pack Films, Palatine Etoile 17
Продолжительность: 01:35:24
Перевод: Любительский многоголосый | AlphaProject

Файл
Кодек: AVC
Качество: WEB-DL 1080p
Видео: MPEG-4 AVC, 4562 Kбит/с, 1920x800, 24.000 кадр/с
Аудио #1: Русский (АС3, 2 ch, 192 Кбит/с, 48.0 KHz) Любительский (многоголосый, закадровый)  AlphaProject
Аудио #2: Французский (АС3, 6 ch, 384 Кбит/с, 48.0 KHz)
Субтитры: Нет
► Без Рекламы!
Трейлер




[+] MediaInfo
Источник: Le.Lion.2020.FRENCH.1080p.WEB.H264-EXTREME
General
Unique ID                      : 220700344322049501575214541081907800781 (0xA609571678C107B2BC0D7FB17A93AACD)
Complete name                  : Le.Lion.2020.FRENCH.WEB-DL.1080p.mkv
Format                         : Matroska
Format version                 : Version 4
File size                      : 3.43 GiB
Duration                       : 1 h 35 min
Overall bit rate               : 5 140 kb/s
Encoded date                   : UTC 2020-06-14 22:10:50
Writing application            : mkvmerge v7.1.0 ('Good Love') 64bit built on Jul 27 2014 13:06:55
Writing library                : libebml v1.3.0 + libmatroska v1.4.1

Video
ID                             : 1
Format                         : AVC
Format/Info                    : Advanced Video Codec
Format profile                 : High@L4
Format settings                : CABAC / 5 Ref Frames
Format settings, CABAC         : Yes
Format settings, Reference fra : 5 frames
Codec ID                       : V_MPEG4/ISO/AVC
Duration                       : 1 h 35 min
Bit rate                       : 4 562 kb/s
Width                          : 1 916 pixels
Height                         : 800 pixels
Display aspect ratio           : 2.40:1
Frame rate mode                : Constant
Frame rate                     : 24.000 FPS
Color space                    : YUV
Chroma subsampling             : 4:2:0
Bit depth                      : 8 bits
Scan type                      : Progressive
Bits/(Pixel*Frame)             : 0.124
Stream size                    : 3.04 GiB (89%)
Language                       : English
Default                        : No
Forced                         : No
Color range                    : Limited
Color primaries                : BT.709
Transfer characteristics       : BT.709
Matrix coefficients            : BT.709

Audio #1
ID                             : 2
Format                         : AC-3
Format/Info                    : Audio Coding 3
Commercial name                : Dolby Digital
Codec ID                       : A_AC3
Duration                       : 1 h 35 min
Bit rate mode                  : Constant
Bit rate                       : 192 kb/s
Channel(s)                     : 2 channels
Channel layout                 : L R
Sampling rate                  : 48.0 kHz
Frame rate                     : 31.250 FPS (1536 SPF)
Compression mode               : Lossy
Stream size                    : 131 MiB (4%)
Language                       : Russian
Service kind                   : Complete Main
Default                        : Yes
Forced                         : No

Audio #2
ID                             : 3
Format                         : AC-3
Format/Info                    : Audio Coding 3
Commercial name                : Dolby Digital
Codec ID                       : A_AC3
Duration                       : 1 h 35 min
Bit rate mode                  : Constant
Bit rate                       : 384 kb/s
Channel(s)                     : 6 channels
Channel layout                 : L R C LFE Ls Rs
Sampling rate                  : 48.0 kHz
Frame rate                     : 31.250 FPS (1536 SPF)
Compression mode               : Lossy
Stream size                    : 262 MiB (7%)
Language                       : French
Service kind                   : Complete Main
Default                        : No
Forced                         : No

Menu
00:00:00.000                   : en:Chapitre 1
00:10:23.625                   : en:Chapitre 2
00:17:16.166                   : en:Chapitre 3
00:30:53.291                   : en:Chapitre 4
00:40:09.166                   : en:Chapitre 5
00:50:30.958                   : en:Chapitre 6
01:00:05.333                   : en:Chapitre 7
01:09:52.791                   : en:Chapitre 8
01:21:04.125                   : en:Chapitre 9
01:30:45.083                   : en:Chapitre 10



Скриншоты:
[+] Всего файлов в раздаче - 1:
Le.Lion.2020.FRENCH.WEB-DL.1080p.mkv3.43 GB

Похожие раздачи по запросу - агент:
2020-08-08 U Короткометражка Marvel: Агент Картер / Marvel One-Shot: Agent Carter (2013) BDRip 1080p | D | Flarrow Films 1.48 GB ↑ 75 ↓ 13
2020-06-15 U Агент Лев / Le lion (2020) WEB-DLRip | L 1.45 GB ↑ 285 ↓ 74
2019-10-04 U Книжная серия - Агент ГРУ. Триллер, написанный военным разведчиком [11книг] (2018-2019) FB2 11.38 MB ↑ 689 ↓ 31

Отзывы
Зарегистрируйтесь чтобы добавить комментарий.
Загрузите программу
  uTorrent.exe
Обратная связь
Copyleft ©