↑↓torrent.by
Поиск
Логин: Регистрация
Пароль: Восстановить пароль

Яга. Кошмар тёмного леса (2020) BDRip-AVC от Generalfilm | GER Transfer | Лицензия

Скачать yaga-koshmar-temnogo-lesa-2020-bdrip-avc-ot-generalfilm-ger-transfer-licenziya.torrent
U Магнитная ссылка Размер: 1.46 GB Раздают: 68 Качают: 16 Добавлен: 2020-06-15 19:05:28
Яга. Кошмар тёмного леса (2020) BDRip-AVC от Generalfilm | GER Transfer | Лицензия

Яга. Кошмар тёмного леса

Год выпуска: 2020
Страна: Россия
Жанр: ужасы
Перевод: Не требуется [Лицензия]
Продолжительность: 01:36:45
Режиссер: Святослав Подгаевский
В ролях:

Олег Чугунов (Егор), Глаша Голубева (Даша), Артём Жигулин (Антон), Игорь Хрипунов (Мрачный), Светлана Устинова (Татьяна, няня), Алексей Розин (Алексей, отец), Марьяна Спивак (Юлия, мачеха), Марта Тимофеева (Сета), Даниил Филиппов (Сета), Женя Евстигнеева (мама Егора), Ольга Макеева (мама Даши)

Описание:
В центре сюжета – молодая семья, которая переехала в новую квартиру на окраине города. Нанятая ими для новорожденной дочери няня быстро вошла в доверие. Однако старший мальчик, Егор, рассказывает о пугающем поведении женщины, но родители ему не верят. Камеры наблюдения, установленные отцом для успокоения, лишь подтверждают – всё в порядке. И вот однажды Егор, вернувшись домой, не находит никаких следов ни няни, ни маленькой сестры, а родители пребывают в странном трансе и даже не помнят, что у них была дочь. Тогда Егор вместе с друзьями отправляется на поиски, в ходе которых выяснится, что няня – древний славянский демон.


Качество: BDRip-AVC
Формат: MKV
Видео: AVC, 1024x428 (2.40:1), 1715 kbps, 24 fps, 0,163 bpp
Аудио: русский / AC3 / 5.1 / 48 kHz / 448 kbps / ||
Навигация по главам: есть

Релиз:


[+] ОтчетМедиаИнфо

General
Unique ID                                : 234358674681028599551357012518307094268 (0xB04FD6C41598F986AC25D702E2ABDEFC)
Complete name                            : E:Baba.Yaga.2020.BDRip.AVC.Rip.by.HardwareMining.R.G.Generalfilm.mkv
Format                                   : Matroska
Format version                           : Version 4 / Version 2
File size                                : 1.46 GiB
Duration                                 : 1 h 36 min
Overall bit rate                         : 2 164 kb/s
Movie name                               : Baba.Yaga.2020.BDRip.AVC.Rip.by.HardwareMining.R.G.Generalfilm
Encoded date                             : UTC 2020-06-14 15:07:59
Writing application                      : mkvmerge v6.8.0 ('Theme for Great Cities') 64bit built on Mar  2 2014 21:34:26
Writing library                          : libebml v1.3.0 + libmatroska v1.4.1

Video
ID                                       : 2
Format                                   : AVC
Format/Info                              : Advanced Video Codec
Format profile                           : High@L4.1
Format settings, CABAC                   : Yes
Format settings, ReFrames                : 10 frames
Codec ID                                 : V_MPEG4/ISO/AVC
Duration                                 : 1 h 36 min
Bit rate                                 : 1 715 kb/s
Width                                    : 1 024 pixels
Height                                   : 428 pixels
Display aspect ratio                     : 2.40:1
Frame rate mode                          : Constant
Frame rate                               : 24.000 FPS
Color space                              : YUV
Chroma subsampling                       : 4:2:0
Bit depth                                : 8 bits
Scan type                                : Progressive
Bits/(Pixel*Frame)                       : 0.163
Stream size                              : 1.13 GiB (77%)
Writing library                          : x264 core 148 r2638 7599210
Encoding settings                        : cabac=1 / ref=10 / deblock=1:-2:-1 / analyse=0x3:0x113 / me=umh / subme=11 / psy=1 / psy_rd=0.00:0.15 / mixed_ref=1 / me_range=32 / chroma_me=1 / trellis=2 / 8x8dct=1 / cqm=0 / deadzone=21,11 / fast_pskip=0 / chroma_qp_offset=-3 / threads=6 / lookahead_threads=1 / sliced_threads=0 / nr=0 / decimate=0 / interlaced=0 / bluray_compat=0 / constrained_intra=0 / bframes=10 / b_pyramid=2 / b_adapt=2 / b_bias=0 / direct=1 / weightb=1 / open_gop=0 / weightp=2 / keyint=240 / keyint_min=23 / scenecut=40 / intra_refresh=0 / rc_lookahead=40 / rc=2pass / mbtree=0 / bitrate=1715 / ratetol=1.0 / qcomp=0.65 / qpmin=0 / qpmax=69 / qpstep=4 / cplxblur=20.0 / qblur=0.5 / vbv_maxrate=50000 / vbv_bufsize=65500 / nal_hrd=none / filler=0 / ip_ratio=1.40 / pb_ratio=1.30 / aq=1:2.00
Language                                 : English
Default                                  : Yes
Forced                                   : No

Audio
ID                                       : 1
Format                                   : AC-3
Format/Info                              : Audio Coding 3
Mode extension                           : CM (complete main)
Format settings, Endianness              : Big
Codec ID                                 : A_AC3
Duration                                 : 1 h 36 min
Bit rate mode                            : Constant
Bit rate                                 : 448 kb/s
Channel(s)                               : 6 channels
Channel positions                        : Front: L C R, Side: L R, LFE
Sampling rate                            : 48.0 kHz
Frame rate                               : 31.250 FPS (1536 spf)
Compression mode                         : Lossy
Stream size                              : 310 MiB (21%)
Title                                    : Лицензия
Language                                 : Russian
Default                                  : Yes
Forced                                   : No

Menu
00:00:00.000                             : de:
00:06:43.500                             : de:
00:14:42.750                             : de:
00:21:46.750                             : de:
00:28:55.667                             : de:
00:37:46.375                             : de:
00:44:01.750                             : de:
00:48:57.000                             : de:
00:54:26.708                             : de:
01:01:38.875                             : de:
01:08:03.667                             : de:
01:11:43.417                             : de:
01:16:19.375                             : de:
01:23:23.250                             : de:
01:27:32.625                             : de:
01:32:50.833                             : de:



Скриншоты:
[+] Всего файлов в раздаче - 1:
Baba.Yaga.2020.BDRip.AVC.Rip.by.HardwareMining.R.G.Generalfilm.mkv1.46 GB

Похожие раздачи по запросу - кошмар:
2020-06-14 U Яга. Кошмар тёмного леса (2020) BDRip от Twister & ExKinoRay | GER Transfer | Лицензия 1.46 GB ↑ 70 ↓ 12
2020-06-13 U Яга. Кошмар тёмного леса (2020) BDRip 1080p от ExKinoRay | GER Transfer | Лицензия 10.54 GB ↑ 85 ↓ 41
2020-04-01 U Яга. Кошмар тёмного леса (2020) WEB-DLRip | iTunes 1.46 GB ↑ 1293 ↓ 432
2020-04-01 U Яга. Кошмар тёмного леса (2020) WEB-DL 1080p | iTunes 3.36 GB ↑ 814 ↓ 437

Отзывы
Зарегистрируйтесь чтобы добавить комментарий.
Загрузите программу
  uTorrent.exe
Обратная связь
Copyleft ©