↑↓torrent.by
Поиск
Логин: Регистрация
Пароль: Восстановить пароль

Пятеро одной крови / Da 5 Bloods (2020) WEBRip-AVC | P

Скачать pyatero-odnoy-krovi-da-5-bloods-2020-webrip-avc-p.torrent
U Магнитная ссылка Размер: 1.45 GB Раздают: 171 Качают: 45 Добавлен: 2020-06-18 07:31:09
Пятеро одной крови / Da 5 Bloods (2020) WEBRip-AVC | P

Название: Пятеро одной крови
Оригинальное название: Da 5 Bloods
Год выхода: 2020
Жанр:  Драма, военный
Режиссер: Спайк Ли
В ролях: Делрой Линдо, Джонатан Мэйджерс, Кларк Питерс, Норм Льюис, Исайя Уитлок мл., Мелани Тьерри, Пол Уолтер Хаузер, Яспер Пяякконен, Джонни Нгуйен, Й. Лан, Жан Рено

О фильме:
Почти полвека спустя четыре чернокожих ветерана войны во Вьетнаме возвращаются в далёкие джунгли, чтобы разыскать останки павшего командира, а заодно и потерянный ЦРУ сундук с золотом.

Страна: США
Студия: 40 Acres & A Mule Filmworks, Rahway Road Productions
Продолжительность: 02:35:52
Перевод: Профессиональный (многоголосый, закадровый) | HDRezka Studio
Внимание: присутствует ненормативная лексика
Субтитры: Русские (Forced, Full), английские (SDH)

Файл
Формат: Matroska
Качество: WEBRip-AVC
Видео: 734x396 at 24.00 fps, x264@L4.1, ~1237 kbps, 0.177 bpp
Аудио: AAC, 2 ch, ~96 kbps - | Русский | -
Формат субтитров: softsub (SRT)

***Релиз от: -=DoMiNo=-


[+] M/I
x264 [info]: frame I:1590  Avg QP:17.21  size: 41618
x264 [info]: frame P:58163 Avg QP:19.55  size: 14071
x264 [info]: frame B:164704 Avg QP:21.60  size:  3311

General
Format                      : Matroska
Format version              : Version 4
File size                   : 1.45 GiB
Duration                    : 2 h 35 min
Overall bit rate            : 1 335 kb/s
Movie name                  : Пятеро одной крови.(2020).WEBRip-AVC.[-=DoMiNo=-]
Encoded date                : UTC 2020-06-17 19:16:07
Writing application         : mkvmerge v47.0.0 ('Black Flag') 64-bit
Writing library             : libebml v1.3.10 + libmatroska v1.5.2
Cover                       : Yes
Attachments                 : cover.jpg / cover 2.jpg

Video
ID                          : 1
Format                      : AVC
Format/Info                 : Advanced Video Codec
Format profile              : High@L4.1
Format settings             : CABAC / 10 Ref Frames
Format settings, CABAC      : Yes
Format settings, Reference  : 10 frames
Codec ID                    : V_MPEG4/ISO/AVC
Duration                    : 2 h 35 min
Bit rate                    : 1 237 kb/s
Width                       : 734 pixels
Height                      : 396 pixels
Display aspect ratio        : 1.85:1
Frame rate mode             : Constant
Frame rate                  : 24.000 FPS
Color space                 : YUV
Chroma subsampling          : 4:2:0
Bit depth                   : 8 bits
Scan type                   : Progressive
Bits/(Pixel*Frame)          : 0.177
Stream size                 : 1.35 GiB (93%)
Title                       : -=DoMiNo=-
Writing library             : x264 core 160 r3009 4c9b076
Encoding settings           : cabac=1 / ref=10 / deblock=1:-3:-3 / analyse=0x3:0x133 / me=umh / subme=11 / psy=1 / psy_rd=1.00:0.00 / mixed_ref=1 / me_range=32 / chroma_me=1 / trellis=2 / 8x8dct=1 / cqm=0 / deadzone=21,11 / fast_pskip=0 / chroma_qp_offset=-2 / threads=6 / lookahead_threads=1 / sliced_threads=0 / nr=0 / decimate=0 / interlaced=0 / bluray_compat=0 / constrained_intra=0 / bframes=10 / b_pyramid=2 / b_adapt=2 / b_bias=0 / direct=3 / weightb=1 / open_gop=0 / weightp=2 / keyint=250 / keyint_min=24 / scenecut=40 / intra_refresh=0 / rc_lookahead=60 / rc=2pass / mbtree=0 / bitrate=1237 / ratetol=1.0 / qcomp=0.60 / qpmin=0 / qpmax=69 / qpstep=4 / cplxblur=20.0 / qblur=0.5 / vbv_maxrate=50000 / vbv_bufsize=62500 / nal_hrd=none / filler=0 / ip_ratio=1.40 / pb_ratio=1.30 / aq=3:1.00
Language                    : English
Default                     : Yes
Forced                      : No
Color range                 : Limited
Color primaries             : BT.709
Transfer characteristics    : BT.709
Matrix coefficients         : BT.709

Audio
ID                          : 2
Format                      : AAC LC SBR
Format/Info                 : Advanced Audio Codec Low Complexity with Spectral Band Replication
Commercial name             : HE-AAC
Format settings             : Implicit
Codec ID                    : A_AAC-2
Duration                    : 2 h 35 min
Bit rate                    : 96.0 kb/s
Channel(s)                  : 2 channels
Channel layout              : L R
Sampling rate               : 48.0 kHz
Frame rate                  : 23.438 FPS (2048 SPF)
Compression mode            : Lossy
Stream size                 : 107 MiB (7%)
Title                       : MVO_[HDRezka Studio]
Language                    : Russian
Default                     : Yes
Forced                      : No

Text #1
ID                          : 3
Format                      : UTF-8
Codec ID                    : S_TEXT/UTF8
Codec ID/Info               : UTF-8 Plain Text
Duration                    : 2 h 27 min
Bit rate                    : 3 b/s
Count of elements           : 84
Stream size                 : 3.80 KiB (0%)
Title                       : forced
Language                    : Russian
Default                     : No
Forced                      : Yes

Text #2
ID                          : 4
Format                      : UTF-8
Codec ID                    : S_TEXT/UTF8
Codec ID/Info               : UTF-8 Plain Text
Duration                    : 2 h 34 min
Bit rate                    : 82 b/s
Count of elements           : 1786
Stream size                 : 93.3 KiB (0%)
Language                    : Russian
Default                     : Yes
Forced                      : No

Text #3
ID                          : 5
Format                      : UTF-8
Codec ID                    : S_TEXT/UTF8
Codec ID/Info               : UTF-8 Plain Text
Duration                    : 2 h 34 min
Bit rate                    : 62 b/s
Count of elements           : 2050
Stream size                 : 71.2 KiB (0%)
Language                    : English
Default                     : No
Forced                      : No

Menu
00:00:00.000                : :Глава 01
00:05:30.000                : :Глава 02
00:11:00.000                : :Глава 03
00:16:30.000                : :Глава 04
00:22:00.000                : :Глава 05
00:27:30.000                : :Глава 06
00:33:00.000                : :Глава 07
00:38:30.000                : :Глава 08
00:44:00.000                : :Глава 09
00:49:30.000                : :Глава 10
00:55:00.000                : :Глава 11
01:00:30.000                : :Глава 12
01:06:00.000                : :Глава 13
01:11:30.000                : :Глава 14
01:17:00.000                : :Глава 15
01:22:30.000                : :Глава 16
01:28:00.000                : :Глава 17
01:33:30.000                : :Глава 18
01:39:00.000                : :Глава 19
01:44:30.000                : :Глава 20
01:50:00.000                : :Глава 21
01:55:30.000                : :Глава 22
02:01:00.000                : :Глава 23
02:06:30.000                : :Глава 24
02:12:00.000                : :Глава 25
02:17:30.000                : :Глава 26
02:23:00.000                : :Глава 27
02:28:30.000                : :Глава 28
02:34:00.000                : :Глава 29



Скриншоты:
[+] Всего файлов в раздаче - 1:
Пятеро одной крови.(2020).WEBRip-AVC.[-=DoMiNo=-].mkv1.45 GB

Отзывы
Зарегистрируйтесь чтобы добавить комментарий.
Загрузите программу
  uTorrent.exe
Обратная связь
Copyleft ©