↑↓torrent.by
Поиск
Логин: Регистрация
Пароль: Восстановить пароль

365 дней / 365 dni (2020) WEBRip 1080p | Sub

Скачать 365-dney-dni-2020-webrip-1080p-sub.torrent
U Магнитная ссылка Размер: 3.79 GB Раздают: 158 Качают: 61 Добавлен: 2020-06-19 07:14:32
365 дней / 365 dni (2020) WEBRip 1080p | Sub

Название: 365 дней
Оригинальное название: 365 dni / 365 Days
Год выхода: 2020
Жанр: драма, мелодрама
Режиссер: Барбара Бяловас
В ролях: Анна Мария Сиклуцка, Мишель Морроне, Бронислав Вроцлавский, Отар Саралидзе, Магдалена Лямпарская, Наташа Урбаньска, Гражина Шаполовска, Томаш Стокингер, Джанни Паризи, Матеуш Ласовски

О фильме:
Массимо Торичелли — молодой, красивый босс сицилийской мафиозной семьи. После убийства отца конкурентами он вынужден взять на себя его обязанности. Лаура Бель — директор по продажам в роскошном отеле. Она успешна в профессии, но в личной жизни ей не хватает страсти. Лаура делает последнюю попытку сохранить отношения. Вместе с партнёром и друзьями она летит на Сицилию, где у нее на пути встает Массимо — самый опасный мужчина на острове, который похитит её и даст ей 365 дней, чтобы она его полюбила.
16+

Страна: Польша
Студия: Ekipa, Future Space, Next Film, TVN
Продолжительность: 01:54:14
Перевод: СУБТИТРЫ

Файл
Кодек: H.264
Качество: WEBRip 1080p
Видео: AVC, 1920x1080 (16:9), 24 fps ~ 4640 Kbps
Звук: E-AC3, 48 KHz, 2 ch ~ 128 Kb/s (английский)
Субтитры: русские, английские


[+] MI:

General
Unique ID                      : 233474753212306414840555087614621279441 (0xAFA59A12A51E9608A6D3DF4EB19864D1)
Complete name                  : J:wot365.Days.2020.1080p.NF.mkv
Format                         : Matroska
Format version                 : Version 4 / Version 2
File size                      : 3.79 GiB
Duration                       : 1h 54mn
Overall bit rate mode          : Variable
Overall bit rate               : 4 748 Kbps
Encoded date                   : UTC 2020-06-18 17:22:39
Writing application            : mkvmerge v7.7.0 ('Six Voices') 32bit built on Feb 28 2015 23:23:00
Writing library                : libebml v1.3.1 + libmatroska v1.4.2
_STATISTICS_WRITING_APP        : mkvmerge v7.7.0 ('Six Voices') 32bit built on Feb 28 2015 23:23:00
_STATISTICS_WRITING_DATE_UTC   : 2020-06-18 17:22:39
_STATISTICS_TAGS               : BPS DURATION NUMBER_OF_FRAMES NUMBER_OF_BYTES
DURATION                       : 01:53:18.917000000
NUMBER_OF_FRAMES               : 876
NUMBER_OF_BYTES                : 37504

Video
ID                             : 1
Format                         : AVC
Format/Info                    : Advanced Video Codec
Format profile                 : Main@L4
Format settings, CABAC         : Yes
Format settings, ReFrames      : 3 frames
Codec ID                       : V_MPEG4/ISO/AVC
Duration                       : 1h 54mn
Bit rate mode                  : Variable
Bit rate                       : 4 640 Kbps
Maximum bit rate               : 6 960 Kbps
Width                          : 1 920 pixels
Height                         : 1 080 pixels
Display aspect ratio           : 16:9
Frame rate mode                : Constant
Frame rate                     : 24.000 fps
Color space                    : YUV
Chroma subsampling             : 4:2:0
Bit depth                      : 8 bits
Scan type                      : Progressive
Bits/(Pixel*Frame)             : 0.093
Stream size                    : 3.61 GiB (95%)
Writing library                : x264 core 148 r2717 0d2410d
Encoding settings              : cabac=1 / ref=3 / deblock=1:0:0 / analyse=0x1:0x111 / me=umh / subme=10 / psy=1 / psy_rd=1.00:0.00 / mixed_ref=1 / me_range=24 / chroma_me=1 / trellis=2 / 8x8dct=0 / cqm=0 / deadzone=21,11 / fast_pskip=1 / chroma_qp_offset=-2 / threads=8 / lookahead_threads=1 / sliced_threads=0 / nr=0 / decimate=1 / interlaced=0 / bluray_compat=0 / stitchable=1 / constrained_intra=0 / bframes=2 / b_pyramid=0 / b_adapt=2 / b_bias=0 / direct=3 / weightb=1 / open_gop=0 / weightp=2 / keyint=250 / keyint_min=24 / scenecut=0 / intra_refresh=0 / rc_lookahead=48 / rc=2pass / mbtree=1 / bitrate=4640 / ratetol=1.0 / qcomp=0.50 / qpmin=6 / qpmax=51 / qpstep=4 / cplxblur=20.0 / qblur=0.5 / vbv_maxrate=6960 / vbv_bufsize=9280 / nal_hrd=vbr / filler=0 / ip_ratio=1.40 / aq=1:1.00
Language                       : English
Default                        : Yes
Forced                         : No

Audio
ID                             : 2
Format                         : E-AC-3
Format/Info                    : Audio Coding 3
Format settings, Endianness    : Big
Codec ID                       : A_EAC3
Duration                       : 1h 54mn
Bit rate mode                  : Constant
Bit rate                       : 128 Kbps
Channel(s)                     : 2 channels
Channel positions              : Front: L R
Sampling rate                  : 48.0 KHz
Compression mode               : Lossy
Stream size                    : 105 MiB (3%)
Title                          : English
Language                       : English
Default                        : Yes
Forced                         : No

Text #1
ID                             : 3
Format                         : UTF-8
Codec ID                       : S_TEXT/UTF8
Codec ID/Info                  : UTF-8 Plain Text
Title                          : Russian
Language                       : Russian
Default                        : No
Forced                         : No

Text #2
ID                             : 4
Format                         : UTF-8
Codec ID                       : S_TEXT/UTF8
Codec ID/Info                  : UTF-8 Plain Text
Title                          : English
Language                       : English
Default                        : No
Forced                         : No

Text #3
ID                             : 5
Format                         : UTF-8
Codec ID                       : S_TEXT/UTF8
Codec ID/Info                  : UTF-8 Plain Text
Title                          : English - [Forced]
Language                       : English
Default                        : No
Forced                         : Yes



Скриншоты:
[+] Всего файлов в раздаче - 1:
365.Days.2020.1080p.NF.mkv3.79 GB

Показать еще раздачи по запросу дней:
2021-03-02 U 100 дней на жизнь / 100 Days to Live (2019) WEB-DLRip-AVC | L 743.76 MB ↑ 46 ↓ 9
2021-02-28 U 100 дней на жизнь / 100 Days to Live (2019) WEB-DL 1080p | L 3.16 GB ↑ 69 ↓ 24
2020-12-03 U Марк Форсайт - Краткая история пьянства от каменного века до наших дней (2020) МР3 177.96 MB ↑ 132 ↓ 12
2020-10-13 U Матвеев С.А. - Грамматика английского языка за 30 дней (2020) PDF 11.19 MB ↑ 355 ↓ 21
2020-09-27 U Шесть дней, семь ночей / Six Days Seven Nights (1998) WEB-DL 1080p | D, P, A 9.11 GB ↑ 97 ↓ 50
2019-11-13 U Антология - Запрещенная поэзия и проза русских классиков. Мои грехи, забавы юных дней (2012) FB2 1.45 MB ↑ 472 ↓ 17
2013-10-29 U Фитнес - Похудей за 30 дней / 30 Day Shred. Jillian Michaels. Rus (2007) DVDRip 10К699.99 MB ↑ 16887 ↓ 67

Отзывы
Зарегистрируйтесь чтобы добавить комментарий.
Загрузите программу
  uTorrent.exe
Обратная связь
Copyleft ©