↑↓torrent.by
Поиск
Логин: Регистрация
Пароль: Восстановить пароль

Пушистые мошенники / Latte & The Magic Waterstone (2019) WEB-DL 1080p | iTunes

Скачать pushistye-moshenniki-latte-the-magic-waterstone-2019-web-dl-1080p-itunes.torrent
U Магнитная ссылка Размер: 3.13 GB Раздают: 57 Качают: 28 Добавлен: 2020-06-19 07:14:58
Пушистые мошенники / Latte & The Magic Waterstone (2019) WEB-DL 1080p | iTunes

Название: Пушистые мошенники
Оригинальное название: Latte & The Magic Waterstone
Год выхода: 2019
Жанр:  Мультфильм, комедия, приключения, семейный
Режиссер: Мими Мэйнард,  Реджина Велкер,  Нина Вельс
В ролях: Луиза Вицорек, Тим Шварцмайер, Хеннинг Баум, Михаэль Дефферт, Эрик Сале, Тимур Бартельс, Регина Лемниц, Геральд Шаале

О фильме: История о двух маленьких, но очень бесстрашных пушистых друзьях. Бельчонок Тьюм и ежиха Латте однажды отправились в королевство к грозному медведю. Все началось с того, что в лесу наступила страшная засуха. Гибли не только деревья и трава, животным нечего было пить, и их всех ждала скорая гибель. Латте и Тьюм стали думать, чем можно помочь родному лесу. Они узнали, что в королевстве, где живут одни медведи, есть бриллиант и что именно он поможет восстановить утраченный водный баланс. Это был непростой бриллиант, он обладал колоссальной магической силой, вот только добраться до драгоценного камня было совсем непросто.

Страна: Германия
Студия: Dreamin' Dolphin Film, Eagle Eye Filmproduktion, Grid Animation
Продолжительность: 01:21:48
Перевод: Дублированный | iTunes

Файл
Качество: WEB-DL 1080p
Формат: Matroska
Видео: MPEG-4 AVC, 1920x1080 (16:9), 5100 kbps, 24.000 fps
Аудио: Russian: АС3, 6 ch, 48 kHz, 384 kbps - DUB, iTunes
Субтитры: Нет

Релиз:


[+] MediaInfo
General
Unique ID                                : 205567893529702949346822956744774705440 (0x9AA6EFA92FFF428FBE63B6B14016E120)
Complete name                            : PUSH_MOSH_2019_WEB-DL_1080p-BLUEBIRD.mkv
Format                                   : Matroska
Format version                           : Version 4 / Version 2
File size                                : 3.13 GiB
Duration                                 : 1 h 21 min
Overall bit rate                         : 5 486 kb/s
Encoded date                             : UTC 2020-06-18 18:15:31
Writing application                      : mkvmerge v43.0.0 ('The Quartermaster') 64-bit
Writing library                          : libebml v1.3.10 + libmatroska v1.5.2
Cover                                    : Yes
Attachments                              : cover.jpg

Video
ID                                       : 1
Format                                   : AVC
Format/Info                              : Advanced Video Codec
Format profile                           : High@L4
Format settings, CABAC                   : Yes
Format settings, RefFrames               : 4 frames
Codec ID                                 : V_MPEG4/ISO/AVC
Duration                                 : 1 h 21 min
Bit rate                                 : 5 100 kb/s
Width                                    : 1 920 pixels
Height                                   : 1 080 pixels
Display aspect ratio                     : 16:9
Frame rate mode                          : Constant
Frame rate                               : 24.000 FPS
Color space                              : YUV
Chroma subsampling                       : 4:2:0
Bit depth                                : 8 bits
Scan type                                : Progressive
Bits/(Pixel*Frame)                       : 0.102
Stream size                              : 2.91 GiB (93%)
Language                                 : English
Default                                  : Yes
Forced                                   : No
Color range                              : Limited
Color primaries                          : BT.709
Transfer characteristics                 : BT.709
Matrix coefficients                      : BT.709

Audio
ID                                       : 2
Format                                   : AC-3
Format/Info                              : Audio Coding 3
Format settings, Endianness              : Big
Codec ID                                 : A_AC3
Duration                                 : 1 h 21 min
Bit rate mode                            : Constant
Bit rate                                 : 384 kb/s
Channel(s)                               : 6 channels
Channel positions                        : Front: L C R, Side: L R, LFE
Sampling rate                            : 48.0 kHz
Frame rate                               : 31.250 FPS (1536 SPF)
Bit depth                                : 16 bits
Compression mode                         : Lossy
Stream size                              : 225 MiB (7%)
Language                                 : Russian
Service kind                             : Complete Main
Default                                  : Yes
Forced                                   : No

Menu
00:00:00.000                             : en:Глава 1
00:08:06.166                             : en:Глава 2
00:16:21.291                             : en:Глава 3
00:24:51.541                             : en:Глава 4
00:33:17.041                             : en:Глава 5
00:41:24.749                             : en:Глава 6
00:49:32.207                             : en:Глава 7
00:57:34.207                             : en:Глава 8
01:05:56.873                             : en:Глава 9
01:13:55.956                             : en:Глава 10



Скриншоты:
[+] Всего файлов в раздаче - 1:
PUSH_MOSH_2019_WEB-DL_1080p-BLUEBIRD.mkv3.13 GB

Похожие раздачи по запросу - пушистые:
2020-06-21 U Пушистые мошенники / Latte & The Magic Waterstone (2019) WEB-DLRip-AVC от ExKinoRay | iTunes | Локализованная версия 737.05 MB ↑ 22 ↓ 9
2020-06-19 U Пушистые мошенники / Latte & The Magic Waterstone (2019) WEB-DLRip | iTunes 1.46 GB ↑ 69 ↓ 47

Отзывы
Зарегистрируйтесь чтобы добавить комментарий.
Обратная связь
Copyleft ©