↑↓torrent.by
Поиск
Логин: Регистрация
Пароль: Восстановить пароль

100ЯНОВ [01-13] (2019-2020) WEBRip от GeneralFilm

Скачать 100yanov-01-13-2019-2020-webrip-ot-generalfilm.torrent
U Магнитная ссылка Размер: 8.90 GB Раздают: 44 Качают: 55 Добавлен: 2020-06-21 04:18:19
100ЯНОВ [01-13] (2019-2020) WEBRip от GeneralFilm

Оригинальное название: 100ЯНОВ
Год выпуска: 2019-2020
Жанр:  Комедия, юмор, скетч-шоу
Выпущено: Россия, ВГТРК, М-Продакшн Медиа
Режиссер: Юрий Стоянов
В ролях: Юрий Стоянов, Сергей Шнуров, Владимир Меньшов, Мария Аронова, Виктор Сухоруков, Юлия Ауг, Михаил Ефремов, Игорь Золотовицкий, Пётр Красилов, Андрей Мерзликин, Дмитрий Певцов, Григорий Сиятвинда, Глафира Тарханова, Сергей Угрюмов, Ян Цапник

О фильме: Юмористическое шоу, в котором мастер пародий и перевоплощений, народный артист России Юрий Стоянов, продолжая традиции знаменитого и любимого миллионами "Городка", предложит зрителю целую галерею незабываемых и гомерически смешных персонажей. Инспектор ГИБДД, квартирный маклер, телепродюсер, продавец модного салона, великий русский поэт, еврейская мама, мисс Ялта-1977, начальник Штирлица Мюллер, мушкетер Портос – кого только здесь нет! Действительно, он – столикий Стоянов! Вместе с ним удивлять зрителя будет целая плеяда замечательных артистов. И можно быть уверенным, что многие из них предстанут перед зрителем в совершенно новом и неожиданном амплуа.

Качество: WEBRip
Видео: XviD build 73, 720x400 (16:9), 25.000 fps, ~ 1600 Kbps (~ 0.185 bit/pixel)
Аудио: 48.0 kHz, AC3, 2/0 ch, 192 kbps
Продолжительность: 13 x ~ 00:51:00
Перевод: Не требуется [Русский]
Cубтитры: нет

Релиз:
[+] MediaInfo
General
Complete name               : D:Razdachi100JANOV.WEBRip.GeneralFilm100JANOV.e01.avi
Format                      : AVI
Format/Info                 : Audio Video Interleave
File size                   : 557 MiB
Duration                    : 50 min 56 s
Overall bit rate            : 1 530 kb/s
Writing application         : VirtualDubMod 1.5.10.3 | www.virtualdub-fr.org || (build 2550/release)
Writing library             : VirtualDubMod build 2550/release

Video
ID                          : 0
Format                      : MPEG-4 Visual
Format profile              : Advanced Simple@L5
Format settings             : BVOP1 / Custom Matrix
Format settings, BVOP       : 1
Format settings, QPel       : No
Format settings, GMC        : No warppoints
Format settings, Matrix     : Custom
Codec ID                    : XVID
Codec ID/Hint               : XviD
Duration                    : 50 min 56 s
Bit rate                    : 1 328 kb/s
Width                       : 720 pixels
Height                      : 400 pixels
Display aspect ratio        : 16:9
Frame rate                  : 25.000 FPS
Color space                 : YUV
Chroma subsampling          : 4:2:0
Bit depth                   : 8 bits
Scan type                   : Progressive
Compression mode            : Lossy
Bits/(Pixel*Frame)          : 0.184
Stream size                 : 484 MiB (87%)
Writing library             : XviD 73

Audio
ID                          : 1
Format                      : AC-3
Format/Info                 : Audio Coding 3
Commercial name             : Dolby Digital
Codec ID                    : 2000
Duration                    : 50 min 56 s
Bit rate mode               : Constant
Bit rate                    : 192 kb/s
Channel(s)                  : 2 channels
Channel layout              : L R
Sampling rate               : 48.0 kHz
Frame rate                  : 31.250 FPS (1536 SPF)
Bit depth                   : 16 bits
Compression mode            : Lossy
Stream size                 : 70.0 MiB (13%)
Alignment                   : Split accross interleaves
Interleave, duration        : 40  ms (1.00 video frame)
Interleave, preload duratio : 500  ms
Service kind                : Complete Main



[+] Скрытый текст
ЦитатаКто-то писал:...Просто Стоянову очень хочется быть в трЭнде, такая клоунада не для меня, извините. Плевать на гэги - да, всем сейчас нужно быть в тренде, не беда - время такое, много всего, нужно напоминать о себе постоянно. Главное, уровень шуток и качественная интерпретация - таких постановок не было в Городке, пусть не всё слишком смешно, но выполнено на отлично! От 14.06 выпуск понравился,.. про чернокожих киндеров - просто, класс!)) А в выпуске от 06.06 про судебную систему - однозначный респект! Про директора зоопарка, про русского хакера-пенсионера - умора же!.. Как и про секретуток и актёра, бьющего женщину в кадре через не могу



[+] Скрытый текст
ЦитатаКто-то писал:Стоянов актер хороший, спору нет, но...Шоу "100ЯНОВ" для меня - шляпа. Ребята, вы серьёзно? За все выпуски всего пару достойных скетчей. Объективно, вам за кадром включают смехуючки, чтобы было понятно, где хотя бы улыбнуло!!!... Для меня гением перевоплощения был и остается Аркадий Райкин. А вы если забыли, пересмотрите "Люди и манекены".  Однако! А.Райкин - гений, бесспорно. Но там другая интонация, если не поняли. Здесь же даже хэш-тэг на другой лад настраивает - "чистопоржать", если не заметили. Да, в основном, высмеивает нравы людей средней возрастной группы, молодых - реже. Но про свадьбу, предложение в ресторане, бегство от "любимой" после пластики лица - это смешно! Даже не ржака, а просто хороший юмор! Сатира, но более ёмкая, едкая, чем у Райкина - время нынче другое, многое можно, откровеннее и смачнее. В этом и благо, и зло. Умный человек выводы сделает - и улыбнётся про себя, где смешно. Закадровый смех - это, именно, для недалёких, подсказывает им, где смешно, коль не сразу дошло.;) А главное - насколько продуманы костюмы, декорации, персонажи - давно не было такого, даже в городке было попроще.



[+] Скрытый текст
Жаль, что Теста не будет. Буду искать дальше. Спасибо за Стоянова!



[+] Скрытый текст
намедни узнал, что передача Тест, выходит теперь в Сб по России, а не в Вс... Думал, закрыли, ан нет. Полезная штуковина, а без рекламы и болтологии - тем паче! Не планируете зарелизить проект? Можно без начальных серий. От меня в кармический рай будет билет!;)



[+] Скрытый текст
ЦитатаКто-то писал:...Такое ощущение что старый клоун, в самом хорошем смысле этого слова, пытается рассмешить публику не смешными шутками и репризами. Очень любил дуэт Стоянов-Олейников. Но то что делает Стоянов последнее время, будь то роли в кино или вот такое, вызывает только грустную улыбку и абсолютное нежелание смотреть вот это... Неправда ваша. Ю.Стоянов несмотря на возраст умеет юморить. Есть в выпусках хорошие шаржи, есть ирония и море сатиры. 4 выпуск не совсем удался. Зато в 5-ом нормуль - смешного хватило. С рестораном - оба номера. Про подкаблучников - вообще, песня! Сразу приятеля вспомнил - а ещё Вову из нашего с М.Пореченковым "Марафона"!)) Да, большинство шуток не ново, зато снято и сыграно классно! С уходом И.Олейникова Стоянову приходится меньше играть женские роли, для этого у него есть актрисы - в ресторанах зажгли обе! А ведь есть и другие истории!.. Голос народа - щепотка перца и соли!



Скриншоты:
[+] Всего файлов в раздаче - 13:
100JANOV.e01.avi557.34 MB
100JANOV.e02.avi557.19 MB
100JANOV.e03.avi743.64 MB
100JANOV.e04.avi557.24 MB
E05.100JANOV.avi744.28 MB
E06.100JANOV.ot.17.05.2020.avi743.19 MB
E07.100JANOV.ot.23.05.2020.avi743.49 MB
E08.100JANOV.ot.24.05.2020.avi743.43 MB
E09.100JANOV.ot.30.05.2020.avi743.42 MB
E10.100JANOV.ot.31.05.2020.avi744.01 MB
E11.100JANOV.ot.06.06.2020.avi743.83 MB
E12.100JANOV.ot.14.06.2020.avi743.89 MB
E13.100JANOV.ot.20.06.2020.avi744.52 MB

Отзывы
Зарегистрируйтесь чтобы добавить комментарий.
Обратная связь
Copyleft ©