↑↓torrent.by
Поиск
Логин: Регистрация
Пароль: Восстановить пароль

Пушистые мошенники / Latte & The Magic Waterstone (2019) WEB-DLRip-AVC от ExKinoRay | iTunes | Локализованная версия

Скачать pushistye-moshenniki-latte-the-magic-waterstone-2019-web-dlrip-avc-ot-exkinoray-itunes-lokalizovannaya-versiya.torrent
U Магнитная ссылка Размер: 737.05 MB Раздают: 22 Качают: 9 Добавлен: 2020-06-21 04:19:49
Пушистые мошенники / Latte & The Magic Waterstone (2019) WEB-DLRip-AVC от ExKinoRay | iTunes | Локализованная версия

Название: Пушистые мошенники
Оригинальное название: Latte & The Magic Waterstone
Год выхода: 2019
Жанр:  Мультфильм, комедия, приключения, семейный
Режиссер: Мими Мэйнард, Реджина Велкер, Нина Вельс
В ролях: Луиза Вицорек, Тим Шварцмайер, Хеннинг Баум, Михаэль Дефферт, Эрик Сале, Тимур Бартельс, Регина Лемниц, Геральд Шаале

О фильме:
История о двух маленьких, но очень бесстрашных пушистых друзьях. Бельчонок Тьюм и ежиха Латте однажды отправились в королевство к грозному медведю. Все началось с того, что в лесу наступила страшная засуха. Гибли не только деревья и трава, животным нечего было пить, и их всех ждала скорая гибель. Латте и Тьюм стали думать, чем можно помочь родному лесу. Они узнали, что в королевстве, где живут одни медведи, есть бриллиант и что именно он поможет восстановить утраченный водный баланс. Это был непростой бриллиант, он обладал колоссальной магической силой, вот только добраться до драгоценного камня было совсем непросто.

Страна: Германия
Студия: Dreamin' Dolphin Film, Eagle Eye Filmproduktion, Grid Animation
Продолжительность: 01:21:48
Перевод: Дублированный | iTunes

Файл
Формат: MKV
Качество: WEB-DLRip-AVC
Видео: MPEG-4 AVC, 768x432, - 1197 Кбит/с
Аудио:  AAC-HE, 2 ch, - 76 Кбит/с
Субтитры: Нет


[+] MI
Общее
Уникальный идентификатор : 258577076249945277445825226644068462844 (0xC288222709F8ADC6FF34BE4887D770FC)
Полное имя : D:MOVIESLatte.The.Magic.Waterstone.2019.WEB-DLRip-AVC.ExKinoRay.mkv
Формат : Matroska
Версия формата : Version 4
Размер файла : 737 Мбайт
Продолжительность : 1 ч. 21 м.
Общий поток : 1 260 Кбит/сек
Дата кодирования : UTC 2020-06-20 05:35:27
Программа кодирования : mkvmerge v45.0.0 ('Heaven in Pennies') 64-bit
Библиотека кодирования : libebml v1.3.10 + libmatroska v1.5.2

Видео
Идентификатор : 1
Формат : AVC
Формат/Информация : Advanced Video Codec
Профиль формата : High@L4.1
Настройки формата : CABAC / 11 Ref Frames
Параметр CABAC формата : Да
Параметр RefFrames формата : 11 кадров
Идентификатор кодека : V_MPEG4/ISO/AVC
Продолжительность : 1 ч. 21 м.
Битрейт : 1 197 Кбит/сек
Ширина : 768 пикселей
Высота : 432 пикселя
Соотношение сторон : 16:9
Режим частоты кадров : Постоянный
Частота кадров : 24,000 кадра/сек
Цветовое пространство : YUV
Субдискретизация насыщенности : 4:2:0
Битовая глубина : 8 бит
Тип развёртки : Прогрессивная
Бит/(Пиксели*Кадры) : 0.150
Размер потока : 692 Мбайт (94%)
Библиотека кодирования : x264 core 160 r3000 33f9e14
Настройки программы : cabac=1 / ref=11 / deblock=1:-3:-3 / analyse=0x3:0x133 / me=umh / subme=10 / psy=1 / psy_rd=1.05:0.10 / mixed_ref=1 / me_range=32 / chroma_me=1 / trellis=2 / 8x8dct=1 / cqm=0 / deadzone=21,11 / fast_pskip=0 / chroma_qp_offset=-3 / threads=6 / lookahead_threads=1 / sliced_threads=0 / nr=0 / decimate=0 / interlaced=0 / bluray_compat=0 / constrained_intra=0 / bframes=10 / b_pyramid=2 / b_adapt=2 / b_bias=0 / direct=3 / weightb=1 / open_gop=0 / weightp=2 / keyint=240 / keyint_min=24 / scenecut=40 / intra_refresh=0 / rc=2pass / mbtree=0 / bitrate=1197 / ratetol=1.0 / qcomp=0.60 / qpmin=0 / qpmax=69 / qpstep=4 / cplxblur=20.0 / qblur=0.5 / ip_ratio=1.40 / pb_ratio=1.30 / aq=3:1.00
Default : Да
Forced : Нет
Цветовой диапазон : Limited
Основные цвета : BT.709
Характеристики трансфера : BT.709
Коэффициенты матрицы : BT.709

Аудио
Идентификатор : 2
Формат : AAC LC SBR
Формат/Информация : Advanced Audio Codec Low Complexity with Spectral Band Replication
Коммерческое название : HE-AAC
Настройки формата : Explicit
Идентификатор кодека : A_AAC-2
Продолжительность : 1 ч. 21 м.
Битрейт : 76,0 Кбит/сек
Каналы : 2 канала
Channel layout : L R
Частота : 48,0 КГц
Частота кадров : 23,438 кадра/сек (2048 SPF)
Метод сжатия : С потерями
Задержка видео : 31 мс.
Размер потока : 44,5 Мбайт (6%)
Язык : Russian
Default : Да
Forced : Нет

Меню
00:00:00.000 : en:Глава 1
00:08:06.166 : en:Глава 2
00:16:21.291 : en:Глава 3
00:24:51.541 : en:Глава 4
00:33:17.041 : en:Глава 5
00:41:24.749 : en:Глава 6
00:49:32.207 : en:Глава 7
00:57:34.207 : en:Глава 8
01:05:56.873 : en:Глава 9
01:13:55.956 : en:Глава 10



Скриншоты:
[+] Всего файлов в раздаче - 1:
Latte.The.Magic.Waterstone.2019.WEB-DLRip-AVC.ExKinoRay.mkv737.05 MB

Похожие раздачи по запросу - пушистые:
2020-06-19 U Пушистые мошенники / Latte & The Magic Waterstone (2019) WEB-DLRip | iTunes 1.46 GB ↑ 69 ↓ 47
2020-06-19 U Пушистые мошенники / Latte & The Magic Waterstone (2019) WEB-DL 1080p | iTunes 3.13 GB ↑ 57 ↓ 28

Отзывы
Зарегистрируйтесь чтобы добавить комментарий.
Обратная связь
Copyleft ©