↑↓torrent.by
Поиск
Логин: Регистрация
Пароль: Восстановить пароль

Парад Победы. Москва. Красная площадь (2020) HDTV 1080i от GeneralFilm

Скачать parad-pobedy-moskva-krasnaya-ploschad-2020-hdtv-1080i-ot-generalfilm.torrent
U Магнитная ссылка Размер: 4.69 GB Раздают: 344 Качают: 106 Добавлен: 2020-06-24 19:05:54
Парад Победы. Москва. Красная площадь (2020) HDTV 1080i от GeneralFilm

Год выпуска: 2020
Жанр:  Документальный, военный парад
Выпущено: Россия, 1 (HD)

О фильме: В главном параде страны, посвящённом 75-й годовщине победы в Великой Отечественной войне, принимают участие пятнадцать тысяч военнослужащих, 234 единицы наземной боевой техники, 80 самолетов и вертолетов

Качество: HDTV (1080i)
Видео: MPEG-TS AVC, , 7742 Кбит/с, 1920x1080, 25 кадр/сек
Аудио: Русский (AC3, 2 ch, 384 Кбит/с, MP2, 2 ch, 192 Кбит/с)
Продолжительность: 01:16:37
Перевод: Не требуется
Субтитры: нет

Релиз:
[+] MediaInfo

Общее
Идентификатор                            : 1 (0x1)
Полное имя                               : D:ЗаписьParad Pobedy. Moskva. Krasnaja ploshhad.(2020).HDTV(1080i).GeneralFilm.ts
Формат                                   : MPEG-TS
Размер файла                             : 4,69 Гбайт
Продолжительность                        : 1 ч. 16 м.
Режим общего битрейта                    : Переменный
Общий поток                              : 8756 Кбит/сек

Видео
Идентификатор                            : 1904 (0x770)
Идентификатор меню                       : 80 (0x50)
Формат                                   : AVC
Формат/Информация                        : Advanced Video Codec
Профиль формата                          : High@L4.0
Параметр CABAC формата                   : Да
Параметр ReFrames формата                : 3 кадра
Параметр GOP формата                     : M=4, N=32
Идентификатор кодека                     : 27
Продолжительность                        : 1 ч. 16 м.
Битрейт                                  : 7742 Кбит/сек
Ширина                                   : 1920 пикселей
Высота                                   : 1080 пикселей
Соотношение сторон                       : 16:9
Частота кадров                           : 25,000 кадров/сек
Стандарт вещания                         : Component
Цветовое пространство                    : YUV
Субдискретизация насыщенности            : 4:2:0
Битовая глубина                          : 8 бит
Тип развёртки                            : Чересстрочная
Порядок развёртки                        : Верхнее поле первое
Бит/(Пиксели*Кадры)                      : 0.149
Размер потока                            : 4,14 Гбайт (88%)
Основные цвета                           : BT.709
Характеристики трансфера                 : BT.709
Коэффициенты матрицы                     : BT.709

Аудио #1
Идентификатор                            : 2904 (0xB58)
Идентификатор меню                       : 80 (0x50)
Формат                                   : AC-3
Формат/Информация                        : Audio Coding 3
Расширение режима                        : CM (complete main)
Параметр Endianness формата              : Big
Идентификатор кодека                     : 6
Продолжительность                        : 1 ч. 16 м.
Вид битрейта                             : Постоянный
Битрейт                                  : 384 Кбит/сек
Каналы                                   : 6 каналов
Расположение каналов                     : Front: L C R, Side: L R, LFE
Частота                                  : 48,0 КГц
Битовая глубина                          : 16 бит
Метод сжатия                             : С потерями
Задержка видео                           : -40 мс.
Размер потока                            : 210 Мбайт (4%)
Язык                                     : Russian

Аудио #2
Идентификатор                            : 2905 (0xB59)
Идентификатор меню                       : 80 (0x50)
Формат                                   : MPEG Audio
Версия формата                           : Version 1
Профиль формата                          : Layer 2
Идентификатор кодека                     : 3
Продолжительность                        : 1 ч. 16 м.
Вид битрейта                             : Постоянный
Битрейт                                  : 192 Кбит/сек
Каналы                                   : 2 канала
Частота                                  : 48,0 КГц
Метод сжатия                             : С потерями
Задержка видео                           : -40 мс.
Размер потока                            : 105 Мбайт (2%)
Язык                                     : Russian




Скриншоты:
[+] Всего файлов в раздаче - 1:
Parad Pobedy. Moskva. Krasnaja ploshhad.(2020).HDTV(1080i).GeneralFilm.ts4.69 GB

Показать еще раздачи по запросу парад:
Вчера U Сборник - Шансон 2020: Музыкальный хит-парад [часть 1] (2020) MP3 581.23 MB ↑ 175 ↓ 51
2020-07-02 U VA - Shazam Хит-парад Russia Top 200 [01.07] (2020) MP3 1.43 GB ↑ 406 ↓ 122
2020-06-25 U Парад Победы. Москва. Красная Площадь (2020) HDTVRip 720р 3.02 GB ↑ 28 ↓ 12
2020-06-24 U Парад Победы. Москва. Красная площадь (2020) HDTVRip от GeneralFilm 986.41 MB ↑ 239 ↓ 77
2020-06-08 U VA - Хит-парад Радио ULTRA (2020) MP3 994.68 MB ↑ 125 ↓ 25
2020-06-02 U VA - Shazam: Хит-парад Russia Top 200 [01.06] (2020) MP3 1.45 GB ↑ 209 ↓ 59
2020-05-10 U Парад Победы в Минске (2020) WEBRip 1080p 1.89 GB ↑ 62 ↓ 17

Отзывы
Зарегистрируйтесь чтобы добавить комментарий.
Обратная связь
Copyleft ©