↑↓torrent.by
Поиск
Логин: Регистрация
Пароль: Восстановить пароль

Парад Победы. Москва. Красная площадь (2020) HDTVRip от GeneralFilm

Скачать parad-pobedy-moskva-krasnaya-ploschad-2020-hdtvrip-ot-generalfilm.torrent
U Магнитная ссылка Размер: 986.41 MB Раздают: 230 Качают: 73 Добавлен: 2020-06-24 19:05:58
Парад Победы. Москва. Красная площадь (2020) HDTVRip от GeneralFilm

Год выпуска: 2020
Жанр:  Документальный, военный парад
Выпущено: Россия, 1 (HD)

О фильме: В главном параде страны, посвящённом 75-й годовщине победы в Великой Отечественной войне, принимают участие пятнадцать тысяч военнослужащих, 234 единицы наземной боевой техники, 80 самолетов и вертолетов

Качество: HDTVRip
Видео: XviD, 1598 Кбит/с, 720x400, 25 кадр/с
Аудио: Русский (AC3, 2 ch, 192 Кбит/с)
Продолжительность: 01:16:37
Перевод: Не требуется
Субтитры: нет

Релиз:
[+] MediaInfo

Общее
Полное имя                               : D:Parad Pobedy. Moskva. Krasnaja ploshhad.(2020).HDTVRip.GeneralFilm.avi
Формат                                   : AVI
Формат/Информация                        : Audio Video Interleave
Размер файла                             : 986 Мбайт
Продолжительность                        : 1 ч. 16 м.
Общий поток                              : 1800 Кбит/сек
Программа кодирования                    : VirtualDubMod 1.5.10.3 | www.virtualdub-fr.org || (build 2550/release)
Библиотека кодирования                   : VirtualDubMod build 2550/release

Видео
Идентификатор                            : 0
Формат                                   : MPEG-4 Visual
Профиль формата                          : Advanced Simple@L5
Параметр BVOP формата                    : 1
Параметр QPel формата                    : Нет
Параметр GMC формата                     : Без точки перехода
Параметр матрицы формата                 : Выборочная
Идентификатор кодека                     : XVID
Идентификатор кодека/Подсказка           : XviD
Продолжительность                        : 1 ч. 16 м.
Битрейт                                  : 1598 Кбит/сек
Ширина                                   : 720 пикселей
Высота                                   : 400 пикселей
Соотношение сторон                       : 16:9
Частота кадров                           : 25,000 кадров/сек
Цветовое пространство                    : YUV
Субдискретизация насыщенности            : 4:2:0
Битовая глубина                          : 8 бит
Тип развёртки                            : Прогрессивная
Метод сжатия                             : С потерями
Бит/(Пиксели*Кадры)                      : 0.222
Размер потока                            : 876 Мбайт (89%)
Библиотека кодирования                   : XviD 1.2.1 (UTC 2008-12-04)

Аудио
Идентификатор                            : 1
Формат                                   : AC-3
Формат/Информация                        : Audio Coding 3
Расширение режима                        : CM (complete main)
Параметр Endianness формата              : Big
Идентификатор кодека                     : 2000
Продолжительность                        : 1 ч. 16 м.
Вид битрейта                             : Постоянный
Битрейт                                  : 192 Кбит/сек
Каналы                                   : 2 канала
Расположение каналов                     : Front: L R
Частота                                  : 48,0 КГц
Битовая глубина                          : 16 бит
Метод сжатия                             : С потерями
Размер потока                            : 105 Мбайт (11%)
Выравнивание                             : Разделение по промежуткам
Продолжительность промежутка             : 40  мс. (1,00 видеокадр)
Время предзагрузки промежутка            : 500  мс.




Скриншоты:
[+] Всего файлов в раздаче - 1:
Parad Pobedy. Moskva. Krasnaja ploshhad.(2020).HDTVRip.GeneralFilm.avi986.41 MB

Показать еще раздачи по запросу парад:
2020-06-25 U Парад Победы. Москва. Красная Площадь (2020) HDTVRip 720р 3.02 GB ↑ 30 ↓ 10
2020-06-24 U Парад Победы. Москва. Красная площадь (2020) HDTV 1080i от GeneralFilm 4.69 GB ↑ 344 ↓ 105
2020-06-08 U VA - Хит-парад Радио ULTRA (2020) MP3 994.68 MB ↑ 115 ↓ 24
2020-06-02 U VA - Shazam: Хит-парад Russia Top 200 [01.06] (2020) MP3 1.45 GB ↑ 199 ↓ 59
2020-05-10 U Парад Победы в Минске (2020) WEBRip 1080p 1.89 GB ↑ 60 ↓ 17
2020-04-29 U VA - Shazam: Хит-парад Russia Top 100 [28.04] (2020) MP3 743.50 MB ↑ 159 ↓ 26
2020-04-02 U VA - Shazam: Хит-парад Russia Top 100 [01.04] (2020) MP3 736.33 MB ↑ 175 ↓ 39

Отзывы
Зарегистрируйтесь чтобы добавить комментарий.
Обратная связь
Copyleft ©