↑↓torrent.by
Поиск
Логин: Регистрация
Пароль: Восстановить пароль

Приходите завтра... (1962) WEB-DL 1080p | Цветная версия

Скачать prihodite-zavtra-1962-web-dl-1080p-cvetnaya-versiya.torrent
U Магнитная ссылка Размер: 3.25 GB Раздают: 24 Качают: 12 Добавлен: 2020-06-25 05:58:02
Приходите завтра... (1962) WEB-DL 1080p | Цветная версия

Название: Приходите завтра...
Год выпуска: 1962
Жанр:  Драма, мелодрама, комедия, музыка
Режиссер: Евгений Ташков
В ролях: Екатерина Савинова, Анатолий Папанов, Борис Бибиков, Антонина Максимова, Юрий Горобец, Надежда Животова, Александр Ширвиндт, Юрий Белов, Александра Денисова, Борис Коковкин

О фильме: Простая и обаятельная девушка Фрося Бурлакова приезжает из сибирской деревушки в Москву, чтобы поступать в консерваторию. У Фроси сильный и красивый голос, она подвижна и артистична, а потому ее заветная мечта - стать знаменитой певицей – должна непременно сбыться. Прием в консерваторию уже закончен, но Фрося не собирается опускать руки. Проводя в консерватории не один день, она все же добивается, чтобы ее прослушал известный профессор.

Страна: СССР
Студия: Одесская киностудия
Продолжительность: 01:32:46
Перевод: Не требуется

Файл
Формат: MKV
Качество: WEB-DL 1080p
Видео: MPEG-4 AVC, 1448x1080, 4695 Kbps, 25.000 fps
Аудио: Russian (AC3, 1 ch, 224 kbps, 16 bits, 48.0 KHz)
Субтитры: Русские


[+] Инфо-файл
General
Unique ID                   : 235597744363861066051772389247388677186 (0xB13E799E30C2385684D01B1AD21AF442)
Complete name               : Приходите завтра.1963.mkv
Format                      : Matroska
Format version              : Version 2
File size                   : 3.25 GiB
Duration                    : 1 h 32 min
Overall bit rate            : 5 019 kb/s
Encoded date                : UTC 2019-10-31 14:19:29
Writing application         : mkvmerge v7.8.0 ('River Man') 32bit built on Mar 27 2015 16:18:02
Writing library             : libebml v1.3.1 + libmatroska v1.4.2

Video
ID                          : 1
Format                      : AVC
Format/Info                 : Advanced Video Codec
Format profile              : High@L4
Format settings             : CABAC / 5 Ref Frames
Format settings, CABAC      : Yes
Format settings, ReFrames   : 5 frames
Codec ID                    : V_MPEG4/ISO/AVC
Duration                    : 1 h 32 min
Bit rate                    : 4 695 kb/s
Width                       : 1 448 pixels
Height                      : 1 080 pixels
Display aspect ratio        : 4:3
Frame rate mode             : Constant
Frame rate                  : 25.000 FPS
Color space                 : YUV
Chroma subsampling          : 4:2:0
Bit depth                   : 8 bits
Scan type                   : Progressive
Bits/(Pixel*Frame)          : 0.120
Stream size                 : 3.04 GiB (94%)
Title                       : Приходите завтра.1963
Language                    : Russian
Default                     : Yes
Forced                      : No
Color range                 : Limited
Color primaries             : BT.709
Transfer characteristics    : BT.709
Matrix coefficients         : BT.709

Audio
ID                          : 2
Format                      : AC-3
Format/Info                 : Audio Coding 3
Codec ID                    : A_AC3
Duration                    : 1 h 32 min
Bit rate mode               : Constant
Bit rate                    : 224 kb/s
Channel(s)                  : 1 channel
Channel positions           : Front: C
Sampling rate               : 48.0 kHz
Frame rate                  : 31.250 FPS (1536 SPF)
Bit depth                   : 16 bits
Compression mode            : Lossy
Stream size                 : 149 MiB (4%)
Title                       : AC-3; 16 bits 48 Khz; Mono 224 Kbps; CBR | (BD)
Language                    : Russian
Service kind                : Complete Main
Default                     : Yes
Forced                      : No

Text
ID                          : 3
Format                      : UTF-8
Codec ID                    : S_TEXT/UTF8
Codec ID/Info               : UTF-8 Plain Text
Title                       : Субтитры русские
Language                    : Russian
Default                     : No
Forced                      : No



Скриншоты:
[+] Всего файлов в раздаче - 1:
Приходите завтра.1963.mkv3.25 GB

Отзывы
Зарегистрируйтесь чтобы добавить комментарий.
Обратная связь
Copyleft ©