↑↓torrent.by
Поиск
Логин: Регистрация
Пароль: Восстановить пароль

Однажды (2015) WEB-DLRip-AVC от ExKinoRay | iTunes

Скачать odnazhdy-2015-web-dlrip-avc-ot-exkinoray-itunes.torrent
U Магнитная ссылка Размер: 745.60 MB Раздают: 56 Качают: 12 Добавлен: 2020-06-25 14:35:41
Однажды (2015) WEB-DLRip-AVC от ExKinoRay | iTunes

Оригинальное название: Однажды
Год выпуска: 2015
Жанр:  Комедия, драма, мелодрама
Режиссер: Ренат Давлетьяров
В ролях: Юрий Дейнекин, Дарья Мельникова, Никита Калинин, Александр Мельников, Артур Мухамадияров, Михаил Тройник, Кристина Бабушкина, Аполлинария Муравьёва, Алёна Каримская, Анатолий Шульев, Иван Орешин, Светлана Улыбина, Андрей Мерзликин, Сергей Гармаш, Ерик Жолжаксынов, Фархат Абдраимов, Евгений Григорьев, Дмитрий Астрахан, Сергей Бадасян, Николай Яковлев, Зураб Гурцкаия, Сергей Калмыков

О фильме:
Однажды Лешка понял, что влюблен. В бывшую девушку брата. Ему еще не было и 16-ти, а ей уже исполнилось 17. Она носила очень короткую юбку и ходила гулять с ребятами из другого района. Впереди у Лешки был последний звонок, последний год жизни в городке и первое серьезное испытание. Он согласился с Таней на пари: проигравший обязан исполнить любое желание победителя.

Страна: Россия
Студия: Реал-Дакота
Продолжительность: 01:41:06
Язык: Русский [iTunes]

Файл
Формат: MKV
Качество: WEB-DLRip-AVC
Видео: MPEG-4 AVC, 768x320, - 954 Кбит/с
Аудио:  AAC-HE, 2 ch, - 76 Кбит/с
Cубтитры: Нет


[+] MI
Общее
Уникальный идентификатор : 98663440256677543338043109212647907012 (0x4A39E32CB08B94917D24BA76B6D4DEC4)
Полное имя : D:MOVIESOdnazhdy.2015.WEB-DLRip-AVC.ExKinoRay.mkv
Формат : Matroska
Версия формата : Version 4
Размер файла : 746 Мбайт
Продолжительность : 1 ч. 41 м.
Общий поток : 1 031 Кбит/сек
Дата кодирования : UTC 2020-06-24 16:04:49
Программа кодирования : mkvmerge v45.0.0 ('Heaven in Pennies') 64-bit
Библиотека кодирования : libebml v1.3.10 + libmatroska v1.5.2

Видео
Идентификатор : 1
Формат : AVC
Формат/Информация : Advanced Video Codec
Профиль формата : High@L4.1
Настройки формата : CABAC / 11 Ref Frames
Параметр CABAC формата : Да
Параметр RefFrames формата : 11 кадров
Идентификатор кодека : V_MPEG4/ISO/AVC
Продолжительность : 1 ч. 41 м.
Битрейт : 954 Кбит/сек
Ширина : 768 пикселей
Высота : 320 пикселей
Соотношение сторон : 2,40:1
Режим частоты кадров : Постоянный
Частота кадров : 24,000 кадра/сек
Цветовое пространство : YUV
Субдискретизация насыщенности : 4:2:0
Битовая глубина : 8 бит
Тип развёртки : Прогрессивная
Бит/(Пиксели*Кадры) : 0.162
Размер потока : 689 Мбайт (92%)
Библиотека кодирования : x264 core 160 r3000 33f9e14
Настройки программы : cabac=1 / ref=11 / deblock=1:-3:-3 / analyse=0x3:0x133 / me=umh / subme=10 / psy=1 / psy_rd=1.05:0.13 / mixed_ref=1 / me_range=32 / chroma_me=1 / trellis=2 / 8x8dct=1 / cqm=0 / deadzone=21,11 / fast_pskip=0 / chroma_qp_offset=-3 / threads=6 / lookahead_threads=1 / sliced_threads=0 / nr=0 / decimate=0 / interlaced=0 / bluray_compat=0 / constrained_intra=0 / bframes=10 / b_pyramid=2 / b_adapt=2 / b_bias=0 / direct=3 / weightb=1 / open_gop=0 / weightp=2 / keyint=240 / keyint_min=24 / scenecut=40 / intra_refresh=0 / rc=2pass / mbtree=0 / bitrate=954 / ratetol=1.0 / qcomp=0.60 / qpmin=0 / qpmax=69 / qpstep=4 / cplxblur=20.0 / qblur=0.5 / ip_ratio=1.40 / pb_ratio=1.30 / aq=3:1.00
Default : Да
Forced : Нет
Цветовой диапазон : Limited
Основные цвета : BT.709
Характеристики трансфера : BT.709
Коэффициенты матрицы : BT.709

Аудио
Идентификатор : 2
Формат : AAC LC SBR
Формат/Информация : Advanced Audio Codec Low Complexity with Spectral Band Replication
Коммерческое название : HE-AAC
Настройки формата : Explicit
Идентификатор кодека : A_AAC-2
Продолжительность : 1 ч. 41 м.
Битрейт : 76,0 Кбит/сек
Каналы : 2 канала
Channel layout : L R
Частота : 48,0 КГц
Частота кадров : 23,438 кадра/сек (2048 SPF)
Метод сжатия : С потерями
Задержка видео : 31 мс.
Размер потока : 55,0 Мбайт (7%)
Язык : Russian
Default : Да
Forced : Нет

Меню
00:00:00.000 : en:Глава 1
00:05:23.000 : en:Глава 2
00:10:50.000 : en:Глава 3
00:15:18.000 : en:Глава 4
00:20:21.000 : en:Глава 5
00:23:58.000 : en:Глава 6
00:28:07.000 : en:Глава 7
00:34:37.000 : en:Глава 8
00:37:21.000 : en:Глава 9
00:41:59.000 : en:Глава 10
00:46:05.000 : en:Глава 11
00:50:11.000 : en:Глава 12
00:52:51.000 : en:Глава 13
00:55:24.000 : en:Глава 14
01:00:43.000 : en:Глава 15
01:06:39.000 : en:Глава 16
01:10:21.000 : en:Глава 17
01:13:36.000 : en:Глава 18
01:17:07.000 : en:Глава 19
01:21:18.000 : en:Глава 20
01:24:31.000 : en:Глава 21
01:30:34.000 : en:Глава 22



Скриншоты:
[+] Всего файлов в раздаче - 1:
Odnazhdy.2015.WEB-DLRip-AVC.ExKinoRay.mkv745.60 MB

Показать еще раздачи по запросу однажды:
2020-06-24 U Однажды (2015) WEB-DLRip AVC | iTunes 1.46 GB ↑ 101 ↓ 38
2020-05-14 U Однажды в России [эфир от 13.05] (2020) WEBRip от DolgOFF 599.86 MB ↑ 258 ↓ 64
2020-05-07 U Однажды в России [07х01-06] (2020) WEBRip 720p от Files-x 1К5.70 GB ↑ 183 ↓ 347
2020-04-18 U Однажды в Трубчевске (2019) WEB-DLRip 745.27 MB ↑ 67 ↓ 14
2020-04-18 U Однажды в России [эфир от 15.04] (2020) WEBRip от DolgOFF 1К599.34 MB ↑ 135 ↓ 15
2020-04-17 U Однажды в Трубчевске (2019) WEB-DL 1080p 3.47 GB ↑ 122 ↓ 57
2020-04-09 U Однажды в России [07х01-03] (2020) WEBRip 720p от Files-x 2.86 GB ↑ 85 ↓ 97

Отзывы
Зарегистрируйтесь чтобы добавить комментарий.
Обратная связь
Copyleft ©