↑↓torrent.by
Поиск
Логин: Регистрация
Пароль: Восстановить пароль

День полнолуния (1998) WEB-DL 1080p

Скачать den-polnoluniya-1998-web-dl-1080p.torrent
U Магнитная ссылка Размер: 2.88 GB Раздают: 55 Качают: 5 Добавлен: 2020-06-25 14:35:54
День полнолуния (1998) WEB-DL 1080p

Название: День полнолуния
Год выпуска: 1998
Жанр:  Драма
Режиссер: Карен Шахназаров
В ролях: Анна Герм, Андрей Панин, Елена Коренева, Владимир Ильин, Валерий Приемыхов, Валерий Сторожик, Валерий Афанасьев, Галина Анисимова, Анна Синякина, Филипп Янковский, Николай Чиндяйкин, Надежда Васильева, Алексей Шевченко, Василий Зотов, Андрей Цыганков, Наталья Фатеева, Федор Сухов, Евгений Стычкин

О фильме: Герои фильма – «новые русские» и старый узбек, удачливый киллер и популярный ди-джей, прекрасная княжна и загадочный монах, иностранный дипломат и великий поэт... Их множество, и все они таинственным образом связаны между собой. Зритель погружается в поток странных путешествий в пространстве и времени.

Страна: Россия
Студия: Курьер, Мосфильм
Продолжительность: 01:27:40
Перевод: Не требуется

Файл
Формат: MKV
Качество: WEB-DL 1080p
Видео: MPEG-4 AVC, 1488x1080, ~ 4000 Kbps, 25.000 fps
Аудио#1: Russian (AC3, 1 ch, 256 kbps, 16 bits, 48.0 KHz)
Аудио#2: Russian (AC3, 6 ch, 448 kbps, 16 bits, 48.0 KHz)
Субтитры: Русские, английские, французские


[+] Инфо-файл
General
Unique ID                   : 227821449057911021556538630328615800190 (0xAB64D0A885793A7FB2A5C224C1B58D7E)
Complete name               : День полнолуния.1998.mkv
Format                      : Matroska
Format version              : Version 2
File size                   : 2.88 GiB
Duration                    : 1 h 27 min
Overall bit rate            : 4 705 kb/s
Encoded date                : UTC 2020-06-24 10:22:26
Writing application         : mkvmerge v7.8.0 ('River Man') 32bit built on Mar 27 2015 16:18:02
Writing library             : libebml v1.3.1 + libmatroska v1.4.2

Video
ID                          : 1
Format                      : AVC
Format/Info                 : Advanced Video Codec
Format profile              : High@L4
Format settings             : CABAC / 3 Ref Frames
Format settings, CABAC      : Yes
Format settings, ReFrames   : 3 frames
Codec ID                    : V_MPEG4/ISO/AVC
Duration                    : 1 h 27 min
Bit rate                    : 3 908 kb/s
Width                       : 1 488 pixels
Height                      : 1 080 pixels
Display aspect ratio        : 1.378
Frame rate mode             : Constant
Frame rate                  : 25.000 FPS
Color space                 : YUV
Chroma subsampling          : 4:2:0
Bit depth                   : 8 bits
Scan type                   : Progressive
Bits/(Pixel*Frame)          : 0.097
Stream size                 : 2.39 GiB (83%)
Title                       : День полнолуния 1998
Language                    : Russian
Default                     : Yes
Forced                      : No

Audio #1
ID                          : 2
Format                      : AC-3
Format/Info                 : Audio Coding 3
Codec ID                    : A_AC3
Duration                    : 1 h 27 min
Bit rate mode               : Constant
Bit rate                    : 256 kb/s
Channel(s)                  : 1 channel
Channel positions           : Front: C
Sampling rate               : 48.0 kHz
Frame rate                  : 31.250 FPS (1536 SPF)
Bit depth                   : 16 bits
Compression mode            : Lossy
Stream size                 : 161 MiB (5%)
Title                       : (DVD5)
Language                    : Russian
Service kind                : Complete Main
Default                     : Yes
Forced                      : No

Audio #2
ID                          : 3
Format                      : AC-3
Format/Info                 : Audio Coding 3
Codec ID                    : A_AC3
Duration                    : 1 h 27 min
Bit rate mode               : Constant
Bit rate                    : 448 kb/s
Channel(s)                  : 6 channels
Channel positions           : Front: L C R, Side: L R, LFE
Sampling rate               : 48.0 kHz
Frame rate                  : 31.250 FPS (1536 SPF)
Bit depth                   : 16 bits
Compression mode            : Lossy
Stream size                 : 281 MiB (10%)
Title                       : (DVD5)
Language                    : Russian
Service kind                : Complete Main
Default                     : No
Forced                      : No

Text #1
ID                          : 4
Format                      : UTF-8
Codec ID                    : S_TEXT/UTF8
Codec ID/Info               : UTF-8 Plain Text
Title                       : (DVD5)
Language                    : Russian
Default                     : No
Forced                      : No

Text #2
ID                          : 5
Format                      : UTF-8
Codec ID                    : S_TEXT/UTF8
Codec ID/Info               : UTF-8 Plain Text
Title                       : (DVD5)
Language                    : English
Default                     : No
Forced                      : No

Text #3
ID                          : 6
Format                      : UTF-8
Codec ID                    : S_TEXT/UTF8
Codec ID/Info               : UTF-8 Plain Text
Title                       : (DVD5)
Language                    : French
Default                     : No
Forced                      : No

Menu
00:00:00.000                : ru:Родословная
00:06:27.000                : ru:Расстрел
00:12:18.000                : ru:Разбитый фужер
00:17:42.000                : ru:Виски
00:23:36.000                : ru:Княжна
00:31:03.000                : ru:Пожар
00:37:03.000                : ru:В ресторане
00:42:03.000                : ru:Владивосток
00:47:57.000                : ru:Аякс
00:53:15.000                : ru:Родители
01:00:00.000                : ru:Полустанок
01:08:00.000                : ru:Посол
01:12:09.000                : ru:Пушкин
01:16:36.000                : ru:Женщина в фиолетовом
01:23:54.000                : ru:Эпилог



Скриншоты:
[+] Всего файлов в раздаче - 1:
День полнолуния.1998.mkv2.88 GB

Показать еще раздачи по запросу день:
2020-06-06 U Татьяна Буланова - День Рождения! (2020) MP3 78.43 MB ↑ 41 ↓ 11
2020-06-04 U Последний день. Михаил Булгаков (2020) SATRip 513.23 MB ↑ 23 ↓ 7
2020-05-11 U Последний день войны [01-04 из 04] (2020) HDTV 1080p от GeneralFilm 10.21 GB ↑ 60 ↓ 44
2020-05-10 U Последний день войны [01-04 из 04] (2020) WEBRip-AVC от Files-x 3.50 GB ↑ 71 ↓ 35
2020-05-10 U Последний день войны [01-04 из 04] (2020) WEBRip-AVC от GeneralFilm 2.73 GB ↑ 97 ↓ 129
2020-05-09 U Последний день войны [01-04 из 04] (2020) WEBRip 720p от ExKinoRay 5.89 GB ↑ 246 ↓ 315
2020-04-28 U National Geographic. Марс: Один день на красной планете / Mars: One Day on the Red Planet (2020) HDTV 1080p | P1 2.10 GB ↑ 75 ↓ 23

Отзывы
Зарегистрируйтесь чтобы добавить комментарий.
Обратная связь
Copyleft ©