↑↓torrent.by
Поиск
Логин: Регистрация
Пароль: Восстановить пароль

Посторонняя (2019) SATRip от Files-x

Скачать postoronnyaya-2019-satrip-ot-files-x.torrent
U Магнитная ссылка Размер: 1.38 GB Раздают: 163 Качают: 93 Добавлен: 2020-06-25 20:07:03
Посторонняя (2019) SATRip от Files-x

Оригинальное название: Посторонняя
Год выхода: 2019
Жанр: Мелодрама, детектив
Режиссер: Сергей Артимович
В ролях: Александра Урсуляк, Павел Трубинер, Михаил Васьков, Сергей Рудзевич, Василиса Савкина, Екатерина Данилова (III), Елена Фатюшина

О фильме:
Катя считает, что её предназначение - быть женой и матерью. Однако за несколько лет жизни с мужем она так и не смогла родить Владимиру ребенка. Внезапно супруг объявляет ей, что уходит от неё к молодой и беременной любовнице. Для Кати это страшный удар, но она понимает, что дети – главное в жизни...

Страна: Россия
Студия: Кинокомпания "Русское", ООО "Студия Весна"
Продолжительность: 01:30:27
Перевод: Не требуется

Файл
Кодек: XviD
Качество: SATRip
Видео: XviD, ~ 1982 Кбит/с, 720x400, 25 кадр/с
Звук: AC3, 2 ch, 192 Кбит/с

Релиз:


[+] MediaInfo

General
Complete name                    : C:Посторонняя.(2019).SATRip.by.Nicodem.Files-x.avi
Format                           : AVI
Format/Info                      : Audio Video Interleave
File size                        : 1.38 GiB
Duration                         : 1h 30mn
Overall bit rate                 : 2 184 Kbps
Writing application              : VirtualDubMod 1.5.10.3 | www.virtualdub-fr.org || (build 2550/release)
Writing library                  : VirtualDubMod build 2550/release

Video
ID                               : 0
Format                           : MPEG-4 Visual
Format profile                   : Advanced Simple@L5
Format settings, BVOP            : 1
Format settings, QPel            : No
Format settings, GMC             : No warppoints
Format settings, Matrix          : Custom
Codec ID                         : XVID
Codec ID/Hint                    : XviD
Duration                         : 1h 30mn
Bit rate                         : 1 982 Kbps
Width                            : 720 pixels
Height                           : 400 pixels
Display aspect ratio             : 16:9
Frame rate                       : 25.000 fps
Color space                      : YUV
Chroma subsampling               : 4:2:0
Bit depth                        : 8 bits
Scan type                        : Progressive
Compression mode                 : Lossy
Bits/(Pixel*Frame)               : 0.275
Stream size                      : 1.25 GiB (91%)
Writing library                  : XviD 73

Audio
ID                               : 1
Format                           : AC-3
Format/Info                      : Audio Coding 3
Mode extension                   : CM (complete main)
Codec ID                         : 2000
Duration                         : 1h 30mn
Bit rate mode                    : Constant
Bit rate                         : 192 Kbps
Channel(s)                       : 2 channels
Channel positions                : Front: L R
Sampling rate                    : 48.0 KHz
Bit depth                        : 16 bits
Compression mode                 : Lossy
Stream size                      : 124 MiB (9%)
Alignment                        : Split accross interleaves
Interleave, duration             : 40 ms (1.00 video frame)
Interleave, preload duration     : 500 ms



Скриншоты:
[+] Всего файлов в раздаче - 1:
Посторонняя.(2019).SATRip.by.Nicodem.Files-x.avi1.38 GB

Похожие раздачи по запросу - посторонняя:
2020-06-27 U Посторонняя (2019) HDTVRip-AVC от Files-x 1.46 GB ↑ 74 ↓ 24
2020-06-26 U Посторонняя (2019) HDTVRip от Files-x 1.37 GB ↑ 38 ↓ 20

Отзывы
Зарегистрируйтесь чтобы добавить комментарий.
Обратная связь
Copyleft ©