↑↓torrent.by
Поиск
Логин: Регистрация
Пароль: Восстановить пароль

Посторонняя (2019) HDTVRip-AVC от Files-x

Скачать postoronnyaya-2019-hdtvrip-avc-ot-files-x.torrent
U Магнитная ссылка Размер: 1.46 GB Раздают: 74 Качают: 24 Добавлен: 2020-06-27 07:41:08
Посторонняя (2019) HDTVRip-AVC от Files-x

Оригинальное название: Посторонняя
Год выпуска: 2020
Жанр:  Мелодрама, детектив
Режиссер: Сергей Артимович
В ролях: Александра Урсуляк, Павел Трубинер, Михаил Васьков, Сергей Рудзевич, Василиса Савкина, Екатерина Данилова (III), Елена Фатюшина

О фильме: Катя считает, что её предназначение - быть женой и матерью. Однако за несколько лет жизни с мужем она так и не смогла родить Владимиру ребенка. Внезапно супруг объявляет ей, что уходит от неё к молодой и беременной любовнице. Для Кати это страшный удар, но она понимает, что дети – главное в жизни...

Страна: Россия
Студия: Кинокомпания "Русское", ООО "Студия Весна"
Продолжительность: ~ 01:30:27

Файл
Кодек: h.264
Качество: HDTVRip-AVC
Видео: MPEG-4 AVC, ~ 2123 Кбит/с, 1024x576, 25 кадр/с
Аудио: AC3, 2 ch, 192 Кбит/с
Язык: Русский

Релиз:


[+] Инфо-файл

General
Unique ID                                : 172086459861590533300859413404319974099 (0x8176A5880B0877A7BE6FC70EDA0382D3)
Complete name                            : F:Postoronnyaya.(2019).HDTVRip.(AVC).by.Серый1779.Files-x.mkv
Format                                   : Matroska
Format version                           : Version 2
File size                                : 1.46 GiB
Duration                                 : 1 h 30 min
Overall bit rate                         : 2 317 kb/s
Encoded date                             : UTC 2020-06-25 23:05:04
Writing application                      : mkvmerge v7.8.0 ('River Man') 32bit built on Apr  3 2015 12:11:22
Writing library                          : libebml v1.3.1 + libmatroska v1.4.2

Video
ID                                       : 1
Format                                   : AVC
Format/Info                              : Advanced Video Codec
Format profile                           : High@L4.1
Format settings                          : CABAC / 9 Ref Frames
Format settings, CABAC                   : Yes
Format settings, RefFrames               : 9 frames
Codec ID                                 : V_MPEG4/ISO/AVC
Duration                                 : 1 h 30 min
Bit rate                                 : 2 123 kb/s
Width                                    : 1 024 pixels
Height                                   : 576 pixels
Display aspect ratio                     : 16:9
Frame rate mode                          : Constant
Frame rate                               : 25.000 FPS
Color space                              : YUV
Chroma subsampling                       : 4:2:0
Bit depth                                : 8 bits
Scan type                                : Progressive
Bits/(Pixel*Frame)                       : 0.144
Stream size                              : 1.31 GiB (90%)
Writing library                          : x264 core 146 r2538 121396c
Encoding settings                        : cabac=1 / ref=9 / deblock=1:-2:-1 / analyse=0x3:0x133 / me=umh / subme=9 / psy=1 / psy_rd=1.00:0.15 / mixed_ref=1 / me_range=32 / chroma_me=1 / trellis=2 / 8x8dct=1 / cqm=0 / deadzone=21,11 / fast_pskip=0 / chroma_qp_offset=-3 / threads=18 / lookahead_threads=3 / sliced_threads=0 / nr=0 / decimate=1 / interlaced=0 / bluray_compat=0 / constrained_intra=0 / bframes=9 / b_pyramid=2 / b_adapt=2 / b_bias=0 / direct=3 / weightb=1 / open_gop=0 / weightp=2 / keyint=250 / keyint_min=25 / scenecut=40 / intra_refresh=0 / rc=2pass / mbtree=0 / bitrate=2123 / ratetol=1.0 / qcomp=0.60 / qpmin=0 / qpmax=69 / qpstep=4 / cplxblur=20.0 / qblur=0.5 / ip_ratio=1.40 / pb_ratio=1.30 / aq=2:1.00
Default                                  : Yes
Forced                                   : No
Color range                              : Limited
Color primaries                          : BT.709
Transfer characteristics                 : BT.709
Matrix coefficients                      : BT.709

Audio
ID                                       : 2
Format                                   : AC-3
Format/Info                              : Audio Coding 3
Format settings, Endianness              : Big
Codec ID                                 : A_AC3
Duration                                 : 1 h 30 min
Bit rate mode                            : Constant
Bit rate                                 : 192 kb/s
Channel(s)                               : 2 channels
Channel positions                        : Front: L R
Sampling rate                            : 48.0 kHz
Frame rate                               : 31.250 FPS (1536 SPF)
Bit depth                                : 16 bits
Compression mode                         : Lossy
Stream size                              : 124 MiB (8%)
Service kind                             : Complete Main
Default                                  : Yes
Forced                                   : No




Скриншоты:
[+] Всего файлов в раздаче - 1:
Postoronnyaya.(2019).HDTVRip.(AVC).by.Серый1779.Files-x.mkv1.46 GB

Похожие раздачи по запросу - посторонняя:
2020-06-26 U Посторонняя (2019) HDTVRip от Files-x 1.37 GB ↑ 38 ↓ 20
2020-06-25 U Посторонняя (2019) SATRip от Files-x 1.38 GB ↑ 163 ↓ 93

Отзывы
Зарегистрируйтесь чтобы добавить комментарий.
Обратная связь
Copyleft ©