↑↓torrent.by
Поиск
Логин: Регистрация
Пароль: Восстановить пароль

Чаклун и Румба / Вторая ошибка сапера (2007) HDTVRip 720p

Скачать chaklun-i-rumba-vtoraya-oshibka-sapera-2007-hdtvrip-720p.torrent
U Магнитная ссылка Размер: 3.08 GB Раздают: 29 Качают: 18 Добавлен: 2020-06-29 07:42:47
Чаклун и Румба / Вторая ошибка сапера (2007) HDTVRip 720p

Название: Чаклун и Румба
Год выпуска: 2007
Жанр:  Драма, военный
Режиссер: Андрей Голубев
В ролях: Андрей Федорцов, Ольга Рептух, Алексей Шедько, Игорь Васильев, Николай Чиндяйкин, Юлия Полубинская, Андрей Голубев, Александр Кашперов, Виктор Васильев, Александр Тимошкин, Андрей Олиференко, Владимир Мищанчук, Александр Ткаченок, Борис Гергалов, Алла Пролич, Зоя Белохвостик, Анатолий Терпицкий, Константин Михаленко, Андрей Шилько

О фильме: В центре повествования - фронтовая судьба одного из миллионов простых солдат Великой Отечественной, сапера Федора Чаклуна и его помощника - овчарки по кличке Румба. Федор обнаруживает заминированный участок дороги и предупреждает об этом младшего лейтенанта Светлану. Но девушка, увлеченная флиртом с подполковником, забывает перекрыть дорогу, и на мине подрывается советский танк. Влюбленный в Светлану Федор берет вину на себя.

Страна: Беларусь
Студия: Беларусьфильм
Продолжительность: 01:18:54
Перевод: Не требуется

Файл
Формат: MKV
Качество: HDTVRip 720p
Видео: MPEG-4 AVC, 1280x720, 5283 Kbps, 25.000 fps
Аудио: Russian (AC3, 2 ch, 192 kbps, 16 bits, 48.0 KHz)
Субтитры: Нет


[+] Инфо-файл
General
Unique ID                   : 219849917843374585366396962012331960706 (0xA5658DD33E376607A6237B8650F6E982)
Complete name               : Чаклун и Румба.2007.720p.mkv
Format                      : Matroska
Format version              : Version 2
File size                   : 3.08 GiB
Duration                    : 1 h 18 min
Overall bit rate            : 5 586 kb/s
Encoded date                : UTC 2020-05-23 16:54:32
Writing application         : mkvmerge v7.8.0 ('River Man') 32bit built on Mar 27 2015 16:18:02
Writing library             : libebml v1.3.1 + libmatroska v1.4.2

Video
ID                          : 1
Format                      : AVC
Format/Info                 : Advanced Video Codec
Format profile              : High@L4.1
Format settings             : CABAC / 9 Ref Frames
Format settings, CABAC      : Yes
Format settings, ReFrames   : 9 frames
Codec ID                    : V_MPEG4/ISO/AVC
Duration                    : 1 h 18 min
Bit rate                    : 5 283 kb/s
Width                       : 1 280 pixels
Height                      : 720 pixels
Display aspect ratio        : 16:9
Frame rate mode             : Constant
Frame rate                  : 25.000 FPS
Color space                 : YUV
Chroma subsampling          : 4:2:0
Bit depth                   : 8 bits
Scan type                   : Progressive
Bits/(Pixel*Frame)          : 0.229
Stream size                 : 2.91 GiB (95%)
Writing library             : x264 core 157 r2867+103 0d6443f t_mod_Custom_2 [8-bit@all X86]
Encoding settings           : cabac=1 / ref=9 / deblock=1:-3:-2 / analyse=0x3:0x133 / me=umh / subme=11 / psy=1 / fade_compensate=0.00 / psy_rd=1.01:0.00 / mixed_ref=1 / me_range=32 / chroma_me=1 / trellis=2 / 8x8dct=1 / cqm=0 / deadzone=21,11 / fast_pskip=0 / chroma_qp_offset=-2 / threads=12 / lookahead_threads=2 / sliced_threads=0 / nr=0 / decimate=0 / interlaced=0 / bluray_compat=0 / constrained_intra=0 / fgo=0 / bframes=9 / b_pyramid=2 / b_adapt=2 / b_bias=0 / direct=3 / weightb=1 / open_gop=0 / weightp=2 / keyint=250 / keyint_min=25 / scenecut=40 / intra_refresh=0 / rc_lookahead=60 / rc=crf / mbtree=0 / crf=17.2000 / qcomp=0.70 / qpmin=0:0:0 / qpmax=69:69:69 / qpstep=4 / vbv_maxrate=62500 / vbv_bufsize=78125 / crf_max=0.0 / nal_hrd=none / filler=0 / ip_ratio=1.35 / pb_ratio=1.20 / aq=1:0.90 / aq-sensitivity=10.00 / aq-factor=1.00:1.00:1.00 / aq2=0 / aq3=0
Language                    : Russian
Default                     : Yes
Forced                      : No
Color range                 : Limited
Color primaries             : BT.709
Transfer characteristics    : BT.709
Matrix coefficients         : BT.709

Audio
ID                          : 2
Format                      : AC-3
Format/Info                 : Audio Coding 3
Codec ID                    : A_AC3
Duration                    : 1 h 18 min
Bit rate mode               : Constant
Bit rate                    : 192 kb/s
Channel(s)                  : 2 channels
Channel positions           : Front: L R
Sampling rate               : 48.0 kHz
Frame rate                  : 31.250 FPS (1536 SPF)
Bit depth                   : 16 bits
Compression mode            : Lossy
Stream size                 : 108 MiB (3%)
Language                    : Russian
Service kind                : Complete Main
Default                     : Yes
Forced                      : No



Скриншоты:
[+] Всего файлов в раздаче - 1:
Чаклун и Румба.2007.720p.mkv3.08 GB

Отзывы
Зарегистрируйтесь чтобы добавить комментарий.
Обратная связь
Copyleft ©