↑↓torrent.by
Поиск
Логин: Регистрация
Пароль: Восстановить пароль

Ломая поверхность / Breaking Surface (2020) WEB-DLRip-AVC от MediaBit | L1

Скачать lomaya-poverhnost-breaking-surface-2020-web-dlrip-avc-ot-mediabit-l1.torrent
U Магнитная ссылка Размер: 1.33 GB Раздают: 36 Качают: 7 Добавлен: 2020-06-29 11:09:38
Ломая поверхность / Breaking Surface (2020) WEB-DLRip-AVC от MediaBit | L1

Название: Ломая поверхность
Оригинальное название: Breaking Surface
Год выхода: 2020
Жанр: Триллер, драма
Режиссер: Йоахим Хеден
В ролях: Муа Гаммель, Мадлен Мартин, Трине Вигген, Джитс Джонатан Буитник, Реми Алашкар, Алессио Баррето, Има Дженни Халлберг, Лена Хоуп, Томас Хой, Элль Корс

О фильме: Две сестры — любительницы дайвинга, решились на зимнее погружение. Опасное мероприятие окончилось для героинь непредвиденным поворотом. Неспокойный океан обрушил часть скалы и одна из девушек оказалась в ловушке на десятиметровой глубине. Напарнице придётся приложить максимум усилий для спасения близкого человека. Ведь её жизнь зависит от правильных действий без секунды промедления

Страна: Швеция, Норвегия, Бельгия
Студия: Way Feature Films, Umedia, Film i Skåne
Продолжительность: 01:18:07
Перевод: Любительский одноголосый | Хихидок

Файл
Кодек: MPEG-4 AVC
Качество: WEB-DLRip-AVC
Видео: 2062 Кбит/с, 1024x430, 25.000 кадр/с
Звук: Русский - AC3, 6 ch, 384 Кбит/с

Семпл

Релиз:


[+] MI
General
Unique ID                   : 298691642318248547837045967313220528361 (0xE0B5EAF5753EAD515CC95222C19DE8E9)
Complete name               : D:2020 рипыЛомая поверхностьLomaya.poverhnosti.2020.x264.WEB-DLRip(AVC)-MediaBit.mkv
Format                      : Matroska
Format version              : Version 4 / Version 2
File size                   : 1.33 GiB
Duration                    : 1 h 18 min
Overall bit rate            : 2 445 kb/s
Movie name                  : Ломая поверхность / Breaking Surface (2020)
Encoded date                : UTC 2020-06-28 14:35:34
Writing application         : mkvmerge v25.0.0 ('Prog Noir') 64-bit
Writing library             : libebml v1.3.6 + libmatroska v1.4.9

Video
ID                          : 1
Format                      : AVC
Format/Info                 : Advanced Video Codec
Format profile              : High@L4.1
Format settings             : CABAC / 11 Ref Frames
Format settings, CABAC      : Yes
Format settings, ReFrames   : 11 frames
Codec ID                    : V_MPEG4/ISO/AVC
Duration                    : 1 h 18 min
Bit rate                    : 2 062 kb/s
Width                       : 1 024 pixels
Height                      : 430 pixels
Display aspect ratio        : 2.40:1
Frame rate mode             : Constant
Frame rate                  : 25.000 FPS
Color space                 : YUV
Chroma subsampling          : 4:2:0
Bit depth                   : 8 bits
Scan type                   : Progressive
Bits/(Pixel*Frame)          : 0.187
Stream size                 : 1.12 GiB (84%)
Title                       : MediaBit
Writing library             : x264 core 157 r2958 57baac4
Encoding settings           : cabac=1 / ref=11 / deblock=1:-3:-3 / analyse=0x3:0x133 / me=umh / subme=9 / psy=1 / psy_rd=1.00:0.15 / mixed_ref=1 / me_range=48 / chroma_me=1 / trellis=1 / 8x8dct=1 / cqm=0 / deadzone=21,11 / fast_pskip=1 / chroma_qp_offset=-3 / threads=6 / lookahead_threads=1 / sliced_threads=0 / nr=0 / decimate=1 / interlaced=0 / bluray_compat=0 / constrained_intra=0 / bframes=11 / b_pyramid=2 / b_adapt=2 / b_bias=11 / direct=3 / weightb=1 / open_gop=0 / weightp=2 / keyint=250 / keyint_min=25 / scenecut=23 / intra_refresh=0 / rc_lookahead=60 / rc=2pass / mbtree=1 / bitrate=2062 / ratetol=1.0 / qcomp=0.60 / qpmin=0 / qpmax=69 / qpstep=4 / cplxblur=20.0 / qblur=0.5 / ip_ratio=1.40 / aq=1:0.90
Language                    : Russian
Default                     : Yes
Forced                      : No

Audio
ID                          : 2
Format                      : AC-3
Format/Info                 : Audio Coding 3
Codec ID                    : A_AC3
Duration                    : 1 h 18 min
Bit rate mode               : Constant
Bit rate                    : 384 kb/s
Channel(s)                  : 6 channels
Channel positions           : Front: L C R, Side: L R, LFE
Sampling rate               : 48.0 kHz
Frame rate                  : 31.250 FPS (1536 SPF)
Bit depth                   : 16 bits
Compression mode            : Lossy
Stream size                 : 215 MiB (16%)
Title                       : VO | Хихидок
Language                    : Russian
Service kind                : Complete Main
Default                     : Yes
Forced                      : No

Menu
00:00:00.000                : :Глава 1
00:06:40.000                : :Глава 2
00:14:28.000                : :Глава 3
00:19:54.000                : :Глава 4
00:25:48.000                : :Глава 5
00:31:34.000                : :Глава 6
00:37:20.000                : :Глава 7
00:44:02.000                : :Глава 8
00:50:14.000                : :Глава 9
00:56:56.000                : :Глава 10
01:04:06.000                : :Глава 11
01:11:52.000                : :Глава 12



Скриншоты:
[+] Всего файлов в раздаче - 1:
Lomaya.poverhnosti.2020.x264.WEB-DLRip(AVC)-MediaBit.mkv1.33 GB

Похожие раздачи по запросу - ломая:
2020-06-29 U Ломая поверхность / Breaking Surface (2020) WEB-DLRip от Portablius | L1 1К744.18 MB ↑ 196 ↓ 29
2020-06-29 U Ломая поверхность / Breaking Surface (2020) WEB-DLRip | L1 1.45 GB ↑ 61 ↓ 23
2020-06-28 U Ломая поверхность / Breaking Surface (2020) WEB-DL 1080p | L1 2.93 GB ↑ 615 ↓ 242

Отзывы
Зарегистрируйтесь чтобы добавить комментарий.
Обратная связь
Copyleft ©