↑↓torrent.by
Поиск
Логин: Регистрация
Пароль: Восстановить пароль

Древние пришельцы / Ancient Aliens [15х01-03 из 12] (2020) WEB-DL 1080p | NEON Studio

Скачать drevnie-prishelcy-ancient-aliens-15h01-03-iz-12-2020-web-dl-1080p-neon-studio.torrent
U Магнитная ссылка Размер: 5.12 GB Раздают: 28 Качают: 12 Добавлен: 2020-06-29 11:10:40
Древние пришельцы / Ancient Aliens [15х01-03 из 12] (2020) WEB-DL 1080p | NEON Studio

Название: Древние пришельцы
Оригинальное название: Ancient Aliens
Год выхода: 2020
Жанр: Документальный, научно-популярный, уфология
Режиссер: Кевин Барнс, Дэвид Сильвер

В ролях:
Уильям Джей. Бернс, Линда Молтон Хоу, Роберт Клотуорти, Джордж Нури, Джонатан Янг, Луис Навия, Бэрри Доунинг, Эрих фон Дэникен, Майкл Кремо, Дэвид Чайлдресс др.

Описание сериала:
Возможно ли, что разумные формы жизни посетили Землю тысячи лет назад, принеся с собой технологии кардинально повлиявшие на ход истории и развития человечества? Теория "древних пришельцев", опубликованная в 1968 году в бестселлере Эриха фон Деникена "Колесницы богов", пошатнула представления людей об общеизвестном прогрессе человечества. Древние пещерные рисунки странных существ, остатки взлетно-посадочных полос в Перу, индийские тексты, описывающие "летающие машины богов"... вот лишь некоторые необычные археологические артефакты на которые ссылается Деникен в качестве доказательств того, что "древние астронавты" были хорошо известны нашим предкам.

Страна: США
Производство: Prometheus Entertainment, A&E Television Networks, LLC., History Channel
Продолжительность: ~00:45:00
Перевод: Любительский (одноголосый) NEON Studio
Субтитры: Отсутствуют

Файл
Формат: MKV
Качество: WEB-DL (1080p)

Видео: 1920x1080 (16:9), 23,976 fps, AVC (х264), High@L4, ~5915 kbps avg, 0.119 bit/pixel
Аудио RUS: 48 kHz, AC3 Dolby Digital, 2/0 (L,R) ch, ~192

Релиз группа:


[+] MediaInfo
Общее
Уникальный идентификатор                 : 110631558704366478887058820726719660079 (0x533ADCF8BA861AD145FA6F6A01CA402F)
Полное имя                               : Ancient.Aliens.S15E01.1080p.WEB-DL.NEONStudio.mkv
Формат                                   : Matroska
Версия формата                           : Version 4
Размер файла                             : 1,80 Гбайт
Продолжительность                        : 42 м. 13 с.
Общий поток                              : 6 106 Кбит/сек
Дата кодирования                         : UTC 2020-06-15 04:35:08
Программа кодирования                    : mkvmerge v47.0.0 ('Black Flag') 64-bit
Библиотека кодирования                   : libebml v1.3.10 + libmatroska v1.5.2
Attachments                              : poster.jpg

Видео
Идентификатор                            : 1
Формат                                   : AVC
Формат/Информация                        : Advanced Video Codec
Профиль формата                          : High@L4
Настройки формата                        : CABAC / 4 Ref Frames
Параметр CABAC формата                   : Да
Параметр RefFrames формата               : 4 кадра
Идентификатор кодека                     : V_MPEG4/ISO/AVC
Продолжительность                        : 42 м. 12 с.
Битрейт                                  : 5 915 Кбит/сек
Ширина                                   : 1 920 пикселей
Высота                                   : 1 080 пикселей
Соотношение сторон                       : 16:9
Режим частоты кадров                     : Постоянный
Частота кадров                           : 23,976 (24000/1001) кадра/сек
Цветовое пространство                    : YUV
Субдискретизация насыщенности            : 4:2:0
Битовая глубина                          : 8 бит
Тип развёртки                            : Прогрессивная
Бит/(Пиксели*Кадры)                      : 0.119
Размер потока                            : 1,74 Гбайт (97%)
Язык                                     : English
Default                                  : Да
Forced                                   : Нет

Аудио
Идентификатор                            : 2
Формат                                   : AC-3
Формат/Информация                        : Audio Coding 3
Коммерческое название                    : Dolby Digital
Идентификатор кодека                     : A_AC3
Продолжительность                        : 42 м. 13 с.
Вид битрейта                             : Постоянный
Битрейт                                  : 192 Кбит/сек
Каналы                                   : 2 канала
Channel layout                           : L R
Частота                                  : 48,0 КГц
Частота кадров                           : 31,250 кадров/сек (1536 SPF)
Метод сжатия                             : С потерями
Размер потока                            : 58,0 Мбайт (3%)
Заголовок                                : NEON Studio
Язык                                     : Russian
Default                                  : Да
Forced                                   : Нет



Скриншоты:
[img]https://i112.fastpic.ru/thumb/2020/0615/c2/_3ef234bf6313734e178b50f65f6fffc2.jpeg" />
[+] Всего файлов в раздаче - 3:
Ancient.Aliens.S15E01.1080p.WEB-DL.NEONStudio.mkv1.80 GB
Ancient.Aliens.S15E02.1080p.WEB-DL.NEONStudio.mkv1.74 GB
Ancient.Aliens.S15E03.1080p.WEB-DL.NEONStudio.mkv1.59 GB

Отзывы
Зарегистрируйтесь чтобы добавить комментарий.
Обратная связь
Copyleft ©