↑↓torrent.by
Поиск
Логин: Регистрация
Пароль: Восстановить пароль

Великая битва / Ansiseong / The Great Battle (2018) BDRip 1080p | P

Скачать velikaya-bitva-ansiseong-the-great-battle-2018-bdrip-1080p-p.torrent
U Магнитная ссылка Размер: 18.14 GB Раздают: 80 Качают: 43 Добавлен: 2020-06-30 06:04:32
Великая битва / Ansiseong / The Great Battle (2018) BDRip 1080p | P

Название: Великая битва
Оригинальное название: Ansiseong / The Great Battle
Год выхода: 2018
Жанр: Боевик, военный, история
Режиссер: Кван Сик Ким
В ролях: Ин Сон Чо, Чжу Хёк Нам, Сон Ун Пак, Сон У Пэ, Тхэ Гу Ом, Соль Хён Ким, Бён Ын Пак, Дэ Хван О, Дон Иль Сон, Ын Чхэ Чон, Гван Чан, Хве Хён Ё, Стефани Ли, Ин Гём Чон, О Сон Ю, Ук Ким, Ю Рам Син, Чон Рэ Ю, Сок Тхэ Чу

О фильме:
Ли Шиминь, император династии Тан, после разгрома в 630 году Восточно-тюркского каганата решил покорить Когурё, одно из раннекорейских государств. Завоевательный поход императора был успешным: крепости пали одна за другой, китайская армия разбивала пехоту и конницу противника. Побеждённый в одной из битв генерал Ён посылает кадета Са-муля убить предателя Ян Ман-чхуна, коменданта крепости Анси. В 645 году Ли Шиминь подошел к Анси. Имея подавляющее численное преимущество, император считал, что взятие крепости — дело одного дня, но генерал Ян Ман-чхун с немногочисленными солдатами армии Когурё будет любой ценой держать оборону крепости Анси — последнего рубежа на пути к Пхеньяну.

Страна: Южная Корея
Студия: Next Entertainment World, Soojak Films
Продолжительность: 02:16:07
Перевод: Профессиональный многоголосый | HDRezka Studio

Файл
Кодек: x.264
Качество: BDRip 1080p
Видео: MPEG-4 AVC, 18.0 Mбит/с, 1920x804, 24.000 кадр/с
Аудио #1: Русский (АС3, 6 ch, 448 Кбит/с, 48.0 KHz) Профессиональный (многоголосый, закадровый)  HDRezka Studio
Аудио #2: Корейский (АС3, 6 ch, 640 Кбит/с, 48.0 KHz)
Субтитры: Русские, английские
► Без Рекламы!
Трейлер




[+] MediaInfo
Источник: The.Great.Battle.2018.KOREAN.1080p.BluRay.x264.DTS-HDC
General
Unique ID                      : 199561880654156517050232106368282013476 (0x9622385D208B64168387B33136362F24)
Complete name                  : The.Great.Battle.2018.BDRip.1080p.mkv
Format                         : Matroska
Format version                 : Version 4
File size                      : 18.1 GiB
Duration                       : 2 h 16 min
Overall bit rate               : 19.1 Mb/s
Encoded date                   : UTC 2020-06-29 10:35:49
Writing application            : mkvmerge v7.1.0 ('Good Love') 64bit built on Jul 27 2014 13:06:55
Writing library                : libebml v1.3.0 + libmatroska v1.4.1

Video
ID                             : 1
Format                         : AVC
Format/Info                    : Advanced Video Codec
Format profile                 : High@L4.1
Format settings                : CABAC / 5 Ref Frames
Format settings, CABAC         : Yes
Format settings, Reference fra : 5 frames
Codec ID                       : V_MPEG4/ISO/AVC
Duration                       : 2 h 16 min
Bit rate                       : 18.0 Mb/s
Width                          : 1 920 pixels
Height                         : 804 pixels
Display aspect ratio           : 2.40:1
Frame rate mode                : Constant
Frame rate                     : 24.000 FPS
Color space                    : YUV
Chroma subsampling             : 4:2:0
Bit depth                      : 8 bits
Scan type                      : Progressive
Bits/(Pixel*Frame)             : 0.486
Stream size                    : 17.1 GiB (94%)
Writing library                : x264 core 142 r2431+42 c69a006 tMod [8-bit@all X86_64]
Encoding settings              : cabac=1 / ref=5 / deblock=1:-3:-3 / analyse=0x3:0x133 / me=umh / subme=11 / psy=1 / fade_compensate=0.00 / psy_rd=1.05:0.00 / mixed_ref=1 / me_range=48 / chroma_me=1 / trellis=2 / 8x8dct=1 / cqm=0 / deadzone=21,11 / fast_pskip=0 / chroma_qp_offset=-2 / threads=16 / lookahead_threads=1 / sliced_threads=0 / nr=0 / decimate=0 / interlaced=0 / bluray_compat=0 / constrained_intra=0 / fgo=0 / bframes=8 / b_pyramid=2 / b_adapt=2 / b_bias=0 / direct=3 / weightb=1 / open_gop=0 / weightp=2 / keyint=240 / keyint_min=24 / scenecut=40 / intra_refresh=0 / rc_lookahead=40 / rc=2pass / mbtree=0 / bitrate=18000 / ratetol=1.0 / qcomp=0.70 / qpmin=0:0:0 / qpmax=69:69:69 / qpstep=4 / cplxblur=20.0 / qblur=0.5 / vbv_maxrate=50000 / vbv_bufsize=45000 / nal_hrd=none / filler=0 / ip_ratio=1.25 / pb_ratio=1.15 / aq=3:0.85 / aq-sensitivity=10.00 / aq-factor=1.00:1.00:1.00 / aq2=0 / aq3=0
Language                       : English
Default                        : Yes
Forced                         : No

Audio #1
ID                             : 2
Format                         : AC-3
Format/Info                    : Audio Coding 3
Commercial name                : Dolby Digital
Codec ID                       : A_AC3
Duration                       : 2 h 16 min
Bit rate mode                  : Constant
Bit rate                       : 448 kb/s
Channel(s)                     : 6 channels
Channel layout                 : L R C LFE Ls Rs
Sampling rate                  : 48.0 kHz
Frame rate                     : 31.250 FPS (1536 SPF)
Compression mode               : Lossy
Stream size                    : 436 MiB (2%)
Title                          : MVO | HDRezka Studio
Language                       : Russian
Service kind                   : Complete Main
Default                        : Yes
Forced                         : No

Audio #2
ID                             : 3
Format                         : AC-3
Format/Info                    : Audio Coding 3
Commercial name                : Dolby Digital
Codec ID                       : A_AC3
Duration                       : 2 h 16 min
Bit rate mode                  : Constant
Bit rate                       : 640 kb/s
Channel(s)                     : 6 channels
Channel layout                 : L R C LFE Ls Rs
Sampling rate                  : 48.0 kHz
Frame rate                     : 31.250 FPS (1536 SPF)
Compression mode               : Lossy
Stream size                    : 623 MiB (3%)
Language                       : Korean
Service kind                   : Complete Main
Default                        : No
Forced                         : No

Text #1
ID                             : 4
Format                         : UTF-8
Codec ID                       : S_TEXT/UTF8
Codec ID/Info                  : UTF-8 Plain Text
Duration                       : 2 h 12 min
Bit rate                       : 44 b/s
Count of elements              : 933
Stream size                    : 42.9 KiB (0%)
Language                       : Russian
Default                        : No
Forced                         : No

Text #2
ID                             : 5
Format                         : UTF-8
Codec ID                       : S_TEXT/UTF8
Codec ID/Info                  : UTF-8 Plain Text
Duration                       : 2 h 11 min
Bit rate                       : 24 b/s
Count of elements              : 926
Stream size                    : 23.5 KiB (0%)
Language                       : English
Default                        : No
Forced                         : No

Menu
00:00:00.000                   : :00:00:00.000
00:10:09.708                   : :00:10:09.708
00:20:26.750                   : :00:20:26.750
00:29:07.708                   : :00:29:07.708
00:38:23.250                   : :00:38:23.250
00:48:05.542                   : :00:48:05.542
01:00:10.917                   : :01:00:10.917
01:15:59.083                   : :01:15:59.083
01:25:44.292                   : :01:25:44.292
01:33:48.333                   : :01:33:48.333
01:44:57.750                   : :01:44:57.750
01:55:34.125                   : :01:55:34.125
02:12:26.125                   : :02:12:26.125



Скриншоты:
[+] Всего файлов в раздаче - 1:
The.Great.Battle.2018.BDRip.1080p.mkv18.14 GB

Похожие раздачи по запросу - великая:
2020-06-25 U Великая неизвестная война (2020) WEBRip 720p 1.55 GB ↑ 101 ↓ 21
2020-06-23 U Вторая мировая. Великая Отечественная [01-06 из 06] (2015) WEBRip 1080p 13.17 GB ↑ 67 ↓ 27
2020-06-17 U Великая война Архимеда / Archimedes no Taisen (2019) HDRip-AVC от ExKinoRay | Sub 1.45 GB ↑ 35 ↓ 15
2020-05-17 U Великая / The Great [S01] (2020) WEBRip | IdeaFilm 6.94 GB ↑ 156 ↓ 152
2020-05-17 U Великая / The Great [S01] (2020) WEBRip от Kerob | L 5.47 GB ↑ 77 ↓ 50

Отзывы
Зарегистрируйтесь чтобы добавить комментарий.
Обратная связь
Copyleft ©