↑↓torrent.by
Поиск
Логин: Регистрация
Пароль: Восстановить пароль

Молодой [01-02 из 02] (2016) WEB-DLRip от GeneralFilm

Скачать molodoy-01-02-iz-2016-web-dlrip-ot-generalfilm.torrent
U Магнитная ссылка Размер: 1.09 GB Раздают: 28 Качают: 18 Добавлен: 2020-06-30 06:06:08
Молодой [01-02 из 02] (2016) WEB-DLRip от GeneralFilm

Оригинальное название: Молодой
Год выпуска: 2016
Жанр:  Криминал, триллер
Выпущено: Россия, «КИТ», «Синтез фильм»
Режиссер: Дмитрий Коробкин
В ролях: Олег Тактаров, Максим Дрозд, Андрей Багиров, Ася Домская, Юрий Архангельский, Вадим Ракитин, Пётр Занин

О фильме: Руслан Белозёрцев - сын владельца порта, типичный мажор, который не привык себя ни в чем ограничивать. У него богатый отец и беззаботная жизнь. Но все меняется, когда его отца убивают, а на самого Руслана начинается настоящая охота. Доверять он может только охраннику отца Роману. Им двоим предстоит узнать, кто виноват в смерти главы семьи, и отстоять порт - дело всей жизни Белозёрцева-старшего...

Качество: WEB-DLRip
Видео: XviD build 73, 720x400 (16:9), 25.000 fps, ~ 1420 Kbps (~ 0.195 bit/pixel)
Аудио: 48.0 kHz, MP3, 2/0 ch, 192 kbps
Продолжительность: 2 x ~ 00:48:00
Перевод: Не требуется [Русский]
Cубтитры: нет

Релиз:


[+] MediaInfo
General
Complete name               : D:RazdachiMolodoy.2016.WEB-DLRip.GeneralFilmE01.Molodoy.avi
Format                      : AVI
Format/Info                 : Audio Video Interleave
File size                   : 558 MiB
Duration                    : 47 min 52 s
Overall bit rate            : 1 629 kb/s
Writing application         : VirtualDubMod 1.5.10.3 | www.virtualdub-fr.org || (build 2550/release)
Writing library             : VirtualDubMod build 2550/release

Video
ID                          : 0
Format                      : MPEG-4 Visual
Format profile              : Advanced Simple@L5
Format settings             : BVOP1 / Custom Matrix
Format settings, BVOP       : 1
Format settings, QPel       : No
Format settings, GMC        : No warppoints
Format settings, Matrix     : Custom
Codec ID                    : XVID
Codec ID/Hint               : XviD
Duration                    : 47 min 52 s
Bit rate                    : 1 427 kb/s
Width                       : 720 pixels
Height                      : 400 pixels
Display aspect ratio        : 16:9
Frame rate                  : 25.000 FPS
Color space                 : YUV
Chroma subsampling          : 4:2:0
Bit depth                   : 8 bits
Scan type                   : Progressive
Compression mode            : Lossy
Bits/(Pixel*Frame)          : 0.198
Stream size                 : 489 MiB (88%)
Writing library             : XviD 73

Audio
ID                          : 1
Format                      : MPEG Audio
Format version              : Version 1
Format profile              : Layer 3
Codec ID                    : 55
Codec ID/Hint               : MP3
Duration                    : 47 min 52 s
Bit rate mode               : Constant
Bit rate                    : 192 kb/s
Channel(s)                  : 2 channels
Sampling rate               : 48.0 kHz
Frame rate                  : 41.667 FPS (1152 SPF)
Compression mode            : Lossy
Stream size                 : 65.7 MiB (12%)
Alignment                   : Aligned on interleaves
Interleave, duration        : 40  ms (1.00 video frame)
Interleave, preload duratio : 504  ms
Writing library             : LAME3.99r
Encoding settings           : -m s -V 4 -q 2 -lowpass 18.6 -b 192



Скриншоты:
[+] Всего файлов в раздаче - 2:
E01.Molodoy.avi557.77 MB
E02.Molodoy.avi557.87 MB

Похожие раздачи по запросу - молодой:
2020-06-29 U Молодой [01-02 из 02] (2016) WEB-DLRip от MegaPeer 1.46 GB ↑ 105 ↓ 28

Отзывы
Зарегистрируйтесь чтобы добавить комментарий.
Обратная связь
Copyleft ©