↑↓torrent.by
Поиск
Логин: Регистрация
Пароль: Восстановить пароль

Генеральская дочь / The General's Daughter (1999) WEB-DLRip-AVC | D, P

Скачать generalskaya-doch-the-general-s-daughter-1999-web-dlrip-avc-d-p.torrent
U Магнитная ссылка Размер: 2.20 GB Раздают: 40 Качают: 11 Добавлен: 2020-06-30 06:06:14
Генеральская дочь / The General's Daughter (1999) WEB-DLRip-AVC | D, P

Название: Генеральская дочь / Дочь генерала
Оригинальное название: The General's Daughter
Год выхода: 1999
Жанр:  Триллер, драма, криминал, детектив, военный, экранизация
Режиссер: Саймон Уэст
В ролях: Джон Траволта, Мэдлин Стоу, Джеймс Кромуэлл, Тимоти Хаттон, Лесли Стефансон, Дэниэл фон Барген, Кларенс Уильямс III, Джеймс Вудс, Питер Вайретер, Марк Бун Джуниор, Джон Бизли, Бойд Кестнер, Брэд Бейер, Джон Бенжамин Хикки, Рик Дайал, Джон Франкенхаймер, Крис Снайдер, Стив Дэнтон

О фильме:
Убийство всегда чудовищно. Особенно если убита молодая и красивая женщина. Тем более, если эта женщина — офицер вооруженных сил США и дочь прославленного генерала. В американской армии не любят «выносить сор из избы». Все внутренние проблемы решаются за хорошо закрытыми дверями. Поэтому расследование этого загадочного убийства поручили военному следователю Полу Бреннеру. Бреннер — опытный профессионал, на счету которого немало сложнейших дел. Во время вьетнамской войны он служил под началом отца убитой, поэтому раскрытие этого преступления для него вопрос чести. Но постепенно и без того уже темное дело начинает обрастать жуткими подробностями. Чтобы найти убийцу, Бреннер должен распутать клубок страшных тайн и скрытых ужасных страстей, блуждая по мрачному лабиринту жизни и смерти. Фильм поставлен по роману Нельсона Демиля "Генеральская дочь".

Страна: США, Германия
Студия: MFP Munich Film Partners GmbH & Company I. Produktions KG
Продолжительность: 01:56:26
Перевод: Дубляж + профессиональный (многоголосый, закадровый) -НТВ+
Субтитры: Русские (SDH, full)

Файл                                      
Формат: Matroska
Качество: WEB-DLRip-AVC
Видео: 1124x470 at 23.976 fps, x264@L4.1, ~2318 kbps, 0.183 bpp
Аудио 1: 48 kHz, AC3 Dolby Digital, 2 ch (L R), ~192 kbps - DUB
Аудио 2: 48 kHz, AC3 Dolby Digital, 2 ch (L R), ~192 kbps - MVO
Формат субтитров: softsub (SRT)

***Релиз от: -=DoMiNo=-


[+] M/I
x264 [info]: frame I:1633  Avg QP:16.88  size: 67917
x264 [info]: frame P:36652 Avg QP:18.06  size: 25316
x264 [info]: frame B:129120 Avg QP:20.34  size:  7621
x264 [info]: consecutive B-frames:  1.6%  1.8%  4.1% 40.3% 16.5% 28.0%  3.4%  2.6%  0.7%  0.4%  0.2%  0.2%  0.2%

General
Format                      : Matroska
Format version              : Version 4
File size                   : 2.20 GiB
Duration                    : 1 h 56 min
Overall bit rate            : 2 704 kb/s
Movie name                  : Генеральская дочь.(1999).WEB-DLRip-AVC.[-=DoMiNo=-]
Encoded date                : UTC 2020-06-29 07:10:18
Writing application         : mkvmerge v48.0.0 ('Fortress Around Your Heart') 64-bit
Writing library             : libebml v1.4.0 + libmatroska v1.6.0
Cover                       : Yes
Attachments                 : cover.jpg / cover 2.jpg

Video
ID                          : 1
Format                      : AVC
Format/Info                 : Advanced Video Codec
Format profile              : High@L4.1
Format settings             : CABAC / 12 Ref Frames
Format settings, CABAC      : Yes
Format settings, Reference  : 12 frames
Codec ID                    : V_MPEG4/ISO/AVC
Duration                    : 1 h 56 min
Bit rate                    : 2 318 kb/s
Width                       : 1 124 pixels
Height                      : 470 pixels
Display aspect ratio        : 2.40:1
Frame rate mode             : Constant
Frame rate                  : 23.976 (24000/1001) FPS
Color space                 : YUV
Chroma subsampling          : 4:2:0
Bit depth                   : 8 bits
Scan type                   : Progressive
Bits/(Pixel*Frame)          : 0.183
Stream size                 : 1.88 GiB (86%)
Title                       : -=DoMiNo=-
Writing library             : x264 core 160 r3009 4c9b076
Encoding settings           : cabac=1 / ref=12 / deblock=1:-3:-3 / analyse=0x3:0x133 / me=umh / subme=10 / psy=1 / psy_rd=1.00:0.15 / mixed_ref=1 / me_range=32 / chroma_me=1 / trellis=2 / 8x8dct=1 / cqm=0 / deadzone=21,11 / fast_pskip=1 / chroma_qp_offset=-3 / threads=6 / lookahead_threads=1 / sliced_threads=0 / nr=0 / decimate=1 / interlaced=0 / bluray_compat=0 / constrained_intra=0 / bframes=12 / b_pyramid=2 / b_adapt=2 / b_bias=0 / direct=1 / weightb=1 / open_gop=0 / weightp=2 / keyint=250 / keyint_min=23 / scenecut=40 / intra_refresh=0 / rc_lookahead=60 / rc=crf / mbtree=0 / crf=19.0 / qcomp=0.60 / qpmin=0 / qpmax=69 / qpstep=4 / vbv_maxrate=50000 / vbv_bufsize=62500 / crf_max=0.0 / nal_hrd=none / filler=0 / ip_ratio=1.40 / pb_ratio=1.30 / aq=1:1.00
Language                    : English
Default                     : Yes
Forced                      : No
Color range                 : Limited
Color primaries             : BT.709
Transfer characteristics    : BT.709
Matrix coefficients         : BT.709

Audio #1
ID                          : 2
Format                      : AC-3
Format/Info                 : Audio Coding 3
Commercial name             : Dolby Digital
Codec ID                    : A_AC3
Duration                    : 1 h 56 min
Bit rate mode               : Constant
Bit rate                    : 192 kb/s
Channel(s)                  : 2 channels
Channel layout              : L R
Sampling rate               : 48.0 kHz
Frame rate                  : 31.250 FPS (1536 SPF)
Compression mode            : Lossy
Stream size                 : 160 MiB (7%)
Title                       : Дубляж
Language                    : Russian
Service kind                : Complete Main
Default                     : Yes
Forced                      : No

Audio #2
ID                          : 3
Format                      : AC-3
Format/Info                 : Audio Coding 3
Commercial name             : Dolby Digital
Codec ID                    : A_AC3
Duration                    : 1 h 56 min
Bit rate mode               : Constant
Bit rate                    : 192 kb/s
Channel(s)                  : 2 channels
Channel layout              : L R
Sampling rate               : 48.0 kHz
Frame rate                  : 31.250 FPS (1536 SPF)
Compression mode            : Lossy
Stream size                 : 160 MiB (7%)
Title                       : Проф. многоголоска - НТВ+
Language                    : Russian
Service kind                : Complete Main
Default                     : No
Forced                      : No

Text #1
ID                          : 4
Format                      : UTF-8
Codec ID                    : S_TEXT/UTF8
Codec ID/Info               : UTF-8 Plain Text
Duration                    : 1 h 51 min
Bit rate                    : 109 b/s
Count of elements           : 1155
Stream size                 : 88.9 KiB (0%)
Title                       : v1
Language                    : Russian
Default                     : No
Forced                      : No

Text #2
ID                          : 5
Format                      : UTF-8
Codec ID                    : S_TEXT/UTF8
Codec ID/Info               : UTF-8 Plain Text
Duration                    : 1 h 50 min
Bit rate                    : 110 b/s
Count of elements           : 932
Stream size                 : 89.7 KiB (0%)
Title                       : v2
Language                    : Russian
Default                     : No
Forced                      : No

Menu
00:00:00.000                : en:Studio Logo
00:00:18.000                : en: Paul Wakes up, Opening Credits; Paul's House
00:01:09.000                : en:Gen. Campbell Gets an Escort; Multiple Locations
00:03:13.000                : en:Gen. Campbell Gives a Speech; Dining Hall
00:05:05.000                : en:Elizabeth Helps Paul with Flat Tire; Road
00:08:26.000                : en:Paul Deals Weapons; Weapons Room
00:09:58.000                : en:Paul Drops Off a Gift; Elizabeth's Office
00:12:26.000                : en:Paul Watches the News; Paul's House
00:13:36.000                : en:Paul Has an Altercation; Docks
00:16:50.000                : en:Soldiers Find a Body; Van
00:18:10.000                : en:The Chief Questions Paul; Docks
00:19:14.000                : en:Paul Finds Out about Elizabeth; Base
00:23:43.000                : en:Paul and Sara Drive from Scene; Car
00:25:11.000                : en:Sara and Paul Meet with Gen. Campbell; Gen. Campbell's Office
00:30:58.000                : en:Paul Questions Robert; Elizabeth's Office
00:32:21.000                : en:Paul and Sara Search Elizabeth's House; Elizabeth's House
00:35:06.000                : en:Paul Finds Elizabeth's Secret Room; Basement
00:38:52.000                : en:Sara Investigates a Body; Base
00:42:40.000                : en:Paul Finds Evidence; Rooftop
00:43:27.000                : en:Pvt. Robbin Tells Her Story; Tower
00:45:07.000                : en:Paul Gets a Lecture; Tower
00:45:58.000                : en:Sara and Paul Have a Drink; Army Bar
00:48:55.000                : en:Paul Questions Robert; Robert's Office
00:54:11.000                : en:Robert Has a Problem; Hangar
00:55:16.000                : en:Paul Looks for Robert; Robert's House
00:58:12.000                : en:Sara Takes Another Look at the Murder Scene; Base
01:00:25.000                : en:Paul Makes an Arrest; Jail
01:02:49.000                : en:Jake Tells His Story; Multiple Locations
01:06:55.000                : en:Paul Gets Upset; Jail
01:08:09.000                : en:Paul and Sara Go Looking for Col. Moore; Multiple Locations
01:10:28.000                : en:Paul Gets Angry; Robert's House
01:14:01.000                : en:Sara Persuades Donald to Talk; Donald's Office
01:16:31.000                : en:Donald Retells Leslie's Attack; Multiple Locations
01:20:29.000                : en:Sara Finds a Suspect to Question; Locker Room
01:25:24.000                : en:Paul Has Questions for Goodson; Multiple Locations
01:27:33.000                : en:Paul Asks Gen. Campbell Hard Questions; Gen. Campbell's Office
01:30:44.000                : en:Gen. Campbell Protects His Image; Multiple Locations
01:33:43.000                : en:Paul Mentions a Phone Call; Gen. Campbell's Office
01:36:10.000                : en:Gen. Campbell Talks to Elizabeth; Base
01:37:39.000                : en:Paul Has a Realization; Joseph's Office
01:39:44.000                : en:Paul and Sara Ask William for a Reason; Base
01:41:48.000                : en:William Explains What Happened; Base
01:45:16.000                : en:Paul Sends a Message; Hangar
01:49:15.000                : en:Elizabeth Leaves the Base; Hangar
01:51:56.000                : en:End Credits



Скриншоты:
[+] Всего файлов в раздаче - 1:
Генеральская дочь.(1999).WEB-DLRip-AVC.[-=DoMiNo=-].mkv2.20 GB

Отзывы
Зарегистрируйтесь чтобы добавить комментарий.
Обратная связь
Copyleft ©