↑↓torrent.by
Поиск
Логин: Регистрация
Пароль: Восстановить пароль

Белые росы (1983) WEBRip 1080p

Скачать belye-rosy-1983-webrip-1080p.torrent
U Магнитная ссылка Размер: 3.38 GB Раздают: 35 Качают: 14 Добавлен: 2020-06-30 06:06:50
Белые росы (1983) WEBRip 1080p

Название: Белые росы
Год выпуска: 1983
Жанр:  Драма, мелодрама, комедия
Режиссер: Игорь Добролюбов
В ролях: Всеволод Санаев, Николай Караченцов, Михаил Кокшенов, Геннадий Гарбук, Борис Новиков, Галина Польских, Наталья Харахорина, Станислав Садальский, Стефания Станюта, Александр Беспалый, Юрий Кухаренок, Юлия Космачева, Галина Макарова, Алексей Биричевский, Валентин Букин

О фильме: Ветеран труда и трех войн, уважаемый человек в деревне Белые росы — Федор Ходас уже давно овдовел и имеет трех взрослых сыновей, и за каждого из них болит отцовское сердце, каждому старается помочь. Старший Андрей - человек основательный, но ему мешает его расчетливость. Балагур и весельчак Васька может потерять семью из-за бывшего возлюбленного его жены Маруси. Средний Сашка - уехал на Курилы и уже 15 лет не был дома... Но за всех у старика душа болит, особенно за младшего балагура.

Страна: СССР
Студия: Беларусьфильм
Продолжительность: 01:23:40
Перевод: Не требуется

Файл
Формат: MKV
Качество: WEBRip 1080p
Видео: MPEG-4 AVC, 1920x1080, 5120 Kbps, 25.000 fps
Аудио#1: Russian (AC3, 2 ch, 224 kbps, 16 bits, 48.0 KHz)
Аудио#2: Russian (AC3, 6 ch, 448 kbps, 16 bits, 48.0 KHz)
Субтитры: Русские


[+] Инфо-файл
General
Unique ID                   : 197313160562980139142045038305545487365 (0x947121E7427BD07F99D7208409AB0405)
Complete name               : Белые росы.1983.1080p.mkv
Format                      : Matroska
Format version              : Version 2
File size                   : 3.38 GiB
Duration                    : 1 h 23 min
Overall bit rate            : 5 789 kb/s
Encoded date                : UTC 2019-09-11 08:23:30
Writing application         : mkvmerge v7.8.0 ('River Man') 32bit built on Mar 27 2015 16:18:02
Writing library             : libebml v1.3.1 + libmatroska v1.4.2

Video
ID                          : 1
Format                      : AVC
Format/Info                 : Advanced Video Codec
Format profile              : High@L4
Format settings             : CABAC / 4 Ref Frames
Format settings, CABAC      : Yes
Format settings, ReFrames   : 4 frames
Codec ID                    : V_MPEG4/ISO/AVC
Duration                    : 1 h 23 min
Bit rate                    : 5 120 kb/s
Width                       : 1 920 pixels
Height                      : 1 080 pixels
Display aspect ratio        : 16:9
Frame rate mode             : Constant
Frame rate                  : 25.000 FPS
Color space                 : YUV
Chroma subsampling          : 4:2:0
Bit depth                   : 8 bits
Scan type                   : Progressive
Bits/(Pixel*Frame)          : 0.099
Stream size                 : 2.92 GiB (86%)
Title                       : Белые росы 1983
Writing library             : x264 core 148
Encoding settings           : cabac=1 / ref=3 / deblock=1:0:0 / analyse=0x3:0x113 / me=hex / subme=7 / psy=1 / psy_rd=1.00:0.00 / mixed_ref=1 / me_range=16 / chroma_me=1 / trellis=1 / 8x8dct=1 / cqm=0 / deadzone=21,11 / fast_pskip=1 / chroma_qp_offset=-2 / threads=34 / lookahead_threads=5 / sliced_threads=0 / nr=0 / decimate=1 / interlaced=0 / bluray_compat=0 / constrained_intra=0 / bframes=6 / b_pyramid=2 / b_adapt=1 / b_bias=0 / direct=1 / weightb=1 / open_gop=0 / weightp=2 / keyint=50 / keyint_min=26 / scenecut=0 / intra_refresh=0 / rc_lookahead=40 / rc=2pass / mbtree=1 / bitrate=5120 / ratetol=1.0 / qcomp=0.60 / qpmin=0 / qpmax=69 / qpstep=4 / cplxblur=20.0 / qblur=0.5 / vbv_maxrate=7680 / vbv_bufsize=20480 / nal_hrd=none / filler=0 / ip_ratio=1.40 / aq=1:1.00
Language                    : Russian
Default                     : Yes
Forced                      : No

Audio #1
ID                          : 2
Format                      : AC-3
Format/Info                 : Audio Coding 3
Codec ID                    : A_AC3
Duration                    : 1 h 23 min
Bit rate mode               : Constant
Bit rate                    : 224 kb/s
Channel(s)                  : 2 channels
Channel positions           : Front: L R
Sampling rate               : 48.0 kHz
Frame rate                  : 31.250 FPS (1536 SPF)
Bit depth                   : 16 bits
Compression mode            : Lossy
Stream size                 : 134 MiB (4%)
Title                       : AC-3; 16 bits 48 Khz; 2.0ch 224 Kbps; CBR
Language                    : Russian
Service kind                : Complete Main
Default                     : Yes
Forced                      : No

Audio #2
ID                          : 3
Format                      : AC-3
Format/Info                 : Audio Coding 3
Codec ID                    : A_AC3
Duration                    : 1 h 23 min
Bit rate mode               : Constant
Bit rate                    : 448 kb/s
Channel(s)                  : 6 channels
Channel positions           : Front: L C R, Side: L R, LFE
Sampling rate               : 48.0 kHz
Frame rate                  : 31.250 FPS (1536 SPF)
Bit depth                   : 16 bits
Compression mode            : Lossy
Stream size                 : 268 MiB (8%)
Title                       : AC-3; 16 bits 48 Khz; 5.1ch 448 Kbps; CBR
Language                    : Russian
Service kind                : Complete Main
Default                     : No
Forced                      : No

Text
ID                          : 4
Format                      : UTF-8
Codec ID                    : S_TEXT/UTF8
Codec ID/Info               : UTF-8 Plain Text
Title                       : Субтитры русские
Language                    : Russian
Default                     : No
Forced                      : No



Скриншоты:
[+] Всего файлов в раздаче - 1:
Белые росы.1983.1080p.mkv3.38 GB

Похожие раздачи по запросу - белые:
2020-05-16 U Белые линии / White Lines [S01] (2020) WEB-DLRip | SDI Media 8.40 GB ↑ 225 ↓ 213
2018-12-25 U Сборник - Дискотека "Белые розы" в обработке DJ (2010) MP3 850.52 MB ↑ 613 ↓ 138

Отзывы
Зарегистрируйтесь чтобы добавить комментарий.
Обратная связь
Copyleft ©