↑↓torrent.by
Поиск
Логин: Регистрация
Пароль: Восстановить пароль

Глейпнир / Gleipnir [S01] (2020) WEBRip 1080p | StudioBand

Скачать gleypnir-gleipnir-s01-2020-webrip-1080p-studioband.torrent
U Магнитная ссылка Размер: 7.79 GB Раздают: 18 Качают: 12 Добавлен: 2020-06-30 06:07:43
Глейпнир / Gleipnir [S01] (2020) WEBRip 1080p | StudioBand

Название: Глейпнир
Оригинальное название: Gleipnir
Год выхода: 2020
Жанр: экшен, детектив, сверхъестественное, этти, сейнен
Режиссер: Кадзухиро Ёнэда
В ролях: Natsuki Hanae, Kana Hanazawa, Nao Tôyama

О фильме:
Небольшой скучный городок, вроде бы среднестатистический старшеклассник Сюити Кагая — обычный набор для развития необычной истории. Сюжет завязывается, когда красавица-одноклассница Сюити, Клэр Аоки, оказывается в огненной ловушке на складе и Сюити вынужден использовать свою загадочную способность. Он может превращаться в большую собаку, у которой на спине молния, а на боку — револьвер. Кагая спасает девушку, раскрывая тем самым свой секрет. Однако оказывается, что у Клэр свой скелет в шкафу: её семью убила собственная сестра Клэр. И теперь Аоки жаждет разыскать сестру чего бы это ни стоило, поэтому она решает использовать парня и его силу в своих целях... © Shikimori


Страна: Япония
Продолжительность: ~ 00:24:00 (серия)
Перевод: Профессиональный (многоголосый, закадровый) | StudioBand [Wakanim]

Файл
Формат: MKV
Кодек: H.264
Качество: WEBRip 1080p
Видео: 1920x1080, 3 290 kb/s, 23.976 FPS, 8 bits
Аудио (русский): AC-3, ~ 320 kb/s, 2 channels, 48.0 kHz
Субтитры: русские (вшитые на надписи)

28.06.2020 обновлено. Добавлена 12-13я серии. Сезон окончен.
[+] MediaInfo

1-я серия

General
Unique ID                   : 34001772293859417922115973366384032991 (0x199480CDEF0332BF54687025CE81FCDF)
Complete name               : [KORSARS]_Gleipnir.[S01E01].WEBRip.1080p_[StudioBand].mkv
Format                      : Matroska
Format version              : Version 4
File size                   : 624 MiB
Duration                    : 23 min 40 s
Overall bit rate            : 3 684 kb/s
Encoded date                : UTC 2020-04-05 16:13:19
Writing application         : HandBrake 1.3.1 2020010400
Writing library             : Lavf58.29.100
ErrorDetectionType          : Per level 1

Video
ID                          : 1
Format                      : AVC
Format/Info                 : Advanced Video Codec
Format profile              : Main@L4
Format settings             : CABAC / 4 Ref Frames
Format settings, CABAC      : Yes
Format settings, Reference  : 4 frames
Codec ID                    : V_MPEG4/ISO/AVC
Duration                    : 23 min 40 s
Bit rate                    : 3 290 kb/s
Width                       : 1 920 pixels
Height                      : 1 080 pixels
Display aspect ratio        : 16:9
Frame rate mode             : Constant
Frame rate                  : 23.976 (24000/1001) FPS
Color space                 : YUV
Chroma subsampling          : 4:2:0
Bit depth                   : 8 bits
Scan type                   : Progressive
Bits/(Pixel*Frame)          : 0.066
Stream size                 : 557 MiB (89%)
Writing library             : x264 core 157 r2935 545de2f
Encoding settings           : cabac=1 / ref=3 / deblock=1:0:0 / analyse=0x1:0x111 / me=hex / subme=7 / psy=1 / psy_rd=1.00:0.00 / mixed_ref=1 / me_range=16 / chroma_me=1 / trellis=1 / 8x8dct=0 / cqm=0 / deadzone=21,11 / fast_pskip=1 / chroma_qp_offset=-2 / threads=9 / lookahead_threads=1 / sliced_threads=0 / nr=0 / decimate=1 / interlaced=0 / bluray_compat=0 / constrained_intra=0 / bframes=3 / b_pyramid=2 / b_adapt=1 / b_bias=0 / direct=1 / weightb=1 / open_gop=0 / weightp=2 / keyint=240 / keyint_min=24 / scenecut=40 / intra_refresh=0 / rc_lookahead=40 / rc=crf / mbtree=1 / crf=22.0 / qcomp=0.60 / qpmin=0 / qpmax=69 / qpstep=4 / vbv_maxrate=20000 / vbv_bufsize=25000 / crf_max=0.0 / nal_hrd=none / filler=0 / ip_ratio=1.40 / aq=1:1.00
Default                     : Yes
Forced                      : No
Color range                 : Limited
Color primaries             : BT.709
Transfer characteristics    : BT.709
Matrix coefficients         : BT.709

Audio
ID                          : 2
Format                      : AC-3
Format/Info                 : Audio Coding 3
Commercial name             : Dolby Digital
Codec ID                    : A_AC3
Duration                    : 23 min 40 s
Bit rate mode               : Constant
Bit rate                    : 320 kb/s
Channel(s)                  : 2 channels
Channel layout              : L R
Sampling rate               : 48.0 kHz
Frame rate                  : 31.250 FPS (1536 SPF)
Compression mode            : Lossy
Delay relative to video     : -5 ms
Stream size                 : 54.2 MiB (9%)
Title                       : Stereo
Service kind                : Complete Main
Default                     : Yes
Forced                      : No

2-я серия

General
Unique ID                   : 280242335740278433091266951369178885121 (0xD2D4B5EA7406C1320A7ADCFE5F622C01)
Complete name               : [KORSARS]_Gleipnir.[S01E02].WEBRip.1080p_[StudioBand].mkv
Format                      : Matroska
Format version              : Version 4
File size                   : 662 MiB
Duration                    : 23 min 39 s
Overall bit rate            : 3 908 kb/s
Encoded date                : UTC 2020-04-12 15:34:28
Writing application         : HandBrake 1.3.1 2020010400
Writing library             : Lavf58.29.100
ErrorDetectionType          : Per level 1

Video
ID                          : 1
Format                      : AVC
Format/Info                 : Advanced Video Codec
Format profile              : Main@L4
Format settings             : CABAC / 4 Ref Frames
Format settings, CABAC      : Yes
Format settings, Reference  : 4 frames
Codec ID                    : V_MPEG4/ISO/AVC
Duration                    : 23 min 39 s
Bit rate                    : 3 510 kb/s
Width                       : 1 920 pixels
Height                      : 1 080 pixels
Display aspect ratio        : 16:9
Frame rate mode             : Constant
Frame rate                  : 23.976 (24000/1001) FPS
Color space                 : YUV
Chroma subsampling          : 4:2:0
Bit depth                   : 8 bits
Scan type                   : Progressive
Bits/(Pixel*Frame)          : 0.071
Stream size                 : 594 MiB (90%)
Writing library             : x264 core 157 r2935 545de2f
Encoding settings           : cabac=1 / ref=3 / deblock=1:0:0 / analyse=0x1:0x111 / me=hex / subme=7 / psy=1 / psy_rd=1.00:0.00 / mixed_ref=1 / me_range=16 / chroma_me=1 / trellis=1 / 8x8dct=0 / cqm=0 / deadzone=21,11 / fast_pskip=1 / chroma_qp_offset=-2 / threads=9 / lookahead_threads=1 / sliced_threads=0 / nr=0 / decimate=1 / interlaced=0 / bluray_compat=0 / constrained_intra=0 / bframes=3 / b_pyramid=2 / b_adapt=1 / b_bias=0 / direct=1 / weightb=1 / open_gop=0 / weightp=2 / keyint=240 / keyint_min=24 / scenecut=40 / intra_refresh=0 / rc_lookahead=40 / rc=crf / mbtree=1 / crf=20.0 / qcomp=0.60 / qpmin=0 / qpmax=69 / qpstep=4 / vbv_maxrate=20000 / vbv_bufsize=25000 / crf_max=0.0 / nal_hrd=none / filler=0 / ip_ratio=1.40 / aq=1:1.00
Default                     : Yes
Forced                      : No
Color range                 : Limited
Color primaries             : BT.709
Transfer characteristics    : BT.709
Matrix coefficients         : BT.709

Audio
ID                          : 2
Format                      : AC-3
Format/Info                 : Audio Coding 3
Commercial name             : Dolby Digital
Codec ID                    : A_AC3
Duration                    : 23 min 39 s
Bit rate mode               : Constant
Bit rate                    : 320 kb/s
Channel(s)                  : 2 channels
Channel layout              : L R
Sampling rate               : 48.0 kHz
Frame rate                  : 31.250 FPS (1536 SPF)
Compression mode            : Lossy
Delay relative to video     : -5 ms
Stream size                 : 54.2 MiB (8%)
Title                       : Stereo
Service kind                : Complete Main
Default                     : Yes
Forced                      : No

3-я серия

General
Unique ID                   : 186415260151785810436845101774373635645 (0x8C3E45EDECF2328C3CD536F81A27C63D)
Complete name               : [KORSARS]_Gleipnir.[S01E03].WEBRip.1080p_[StudioBand].mkv
Format                      : Matroska
Format version              : Version 4
File size                   : 610 MiB
Duration                    : 23 min 40 s
Overall bit rate            : 3 603 kb/s
Encoded date                : UTC 2020-04-19 15:45:40
Writing application         : HandBrake 1.3.1 2020010400
Writing library             : Lavf58.29.100
ErrorDetectionType          : Per level 1

Video
ID                          : 1
Format                      : AVC
Format/Info                 : Advanced Video Codec
Format profile              : Main@L4
Format settings             : CABAC / 4 Ref Frames
Format settings, CABAC      : Yes
Format settings, Reference  : 4 frames
Codec ID                    : V_MPEG4/ISO/AVC
Duration                    : 23 min 40 s
Bit rate                    : 3 211 kb/s
Width                       : 1 920 pixels
Height                      : 1 080 pixels
Display aspect ratio        : 16:9
Frame rate mode             : Constant
Frame rate                  : 23.976 (24000/1001) FPS
Color space                 : YUV
Chroma subsampling          : 4:2:0
Bit depth                   : 8 bits
Scan type                   : Progressive
Bits/(Pixel*Frame)          : 0.065
Stream size                 : 544 MiB (89%)
Writing library             : x264 core 157 r2935 545de2f
Encoding settings           : cabac=1 / ref=3 / deblock=1:0:0 / analyse=0x1:0x111 / me=hex / subme=7 / psy=1 / psy_rd=1.00:0.00 / mixed_ref=1 / me_range=16 / chroma_me=1 / trellis=1 / 8x8dct=0 / cqm=0 / deadzone=21,11 / fast_pskip=1 / chroma_qp_offset=-2 / threads=9 / lookahead_threads=1 / sliced_threads=0 / nr=0 / decimate=1 / interlaced=0 / bluray_compat=0 / constrained_intra=0 / bframes=3 / b_pyramid=2 / b_adapt=1 / b_bias=0 / direct=1 / weightb=1 / open_gop=0 / weightp=2 / keyint=240 / keyint_min=24 / scenecut=40 / intra_refresh=0 / rc_lookahead=40 / rc=crf / mbtree=1 / crf=20.0 / qcomp=0.60 / qpmin=0 / qpmax=69 / qpstep=4 / vbv_maxrate=20000 / vbv_bufsize=25000 / crf_max=0.0 / nal_hrd=none / filler=0 / ip_ratio=1.40 / aq=1:1.00
Default                     : Yes
Forced                      : No
Color range                 : Limited
Color primaries             : BT.709
Transfer characteristics    : BT.709
Matrix coefficients         : BT.709

Audio
ID                          : 2
Format                      : AC-3
Format/Info                 : Audio Coding 3
Commercial name             : Dolby Digital
Codec ID                    : A_AC3
Duration                    : 23 min 40 s
Bit rate mode               : Constant
Bit rate                    : 320 kb/s
Channel(s)                  : 2 channels
Channel layout              : L R
Sampling rate               : 48.0 kHz
Frame rate                  : 31.250 FPS (1536 SPF)
Compression mode            : Lossy
Delay relative to video     : -5 ms
Stream size                 : 54.2 MiB (9%)
Title                       : Stereo
Service kind                : Complete Main
Default                     : Yes
Forced                      : No



Скриншоты:
[+] Всего файлов в раздаче - 13:
[KORSARS]_Gleipnir.[S01E11].WEBRip.1080p_[StudioBand].mkv457.32 MB
[KORSARS]_Gleipnir.[S01E06].WEBRip.1080p_[StudioBand].mkv528.88 MB
[KORSARS]_Gleipnir.[S01E13].WEBRip.1080p_[StudioBand].mkv547.18 MB
[KORSARS]_Gleipnir.[S01E12].WEBRip.1080p_[StudioBand].mkv578.30 MB
[KORSARS]_Gleipnir.[S01E04].WEBRip.1080p_[StudioBand].mkv591.20 MB
[KORSARS]_Gleipnir.[S01E09].WEBRip.1080p_[StudioBand].mkv595.13 MB
[KORSARS]_Gleipnir.[S01E03].WEBRip.1080p_[StudioBand].mkv609.90 MB
[KORSARS]_Gleipnir.[S01E01].WEBRip.1080p_[StudioBand].mkv623.58 MB
[KORSARS]_Gleipnir.[S01E08].WEBRip.1080p_[StudioBand].mkv627.91 MB
[KORSARS]_Gleipnir.[S01E02].WEBRip.1080p_[StudioBand].mkv661.54 MB
[KORSARS]_Gleipnir.[S01E05].WEBRip.1080p_[StudioBand].mkv671.54 MB
[KORSARS]_Gleipnir.[S01E10].WEBRip.1080p_[StudioBand].mkv697.63 MB
[KORSARS]_Gleipnir.[S01E07].WEBRip.1080p_[StudioBand].mkv790.57 MB

Отзывы
Зарегистрируйтесь чтобы добавить комментарий.
Обратная связь
Copyleft ©