↑↓torrent.by
Поиск
Логин: Регистрация
Пароль: Восстановить пароль

Водоворот [01-03 из 08] (2020) WEBRip от GeneralFilm

Скачать vodovorot-01-03-iz-08-2020-webrip-ot-generalfilm.torrent
U Магнитная ссылка Размер: 1.63 GB Раздают: 156 Качают: 175 Добавлен: 2020-07-04 11:11:25
Водоворот [01-03 из 08] (2020) WEBRip от GeneralFilm

Оригинальное название: Водоворот
Год выпуска: 2020
Жанр:  Детектив, драма, криминал, триллер
Выпущено: Россия, "Марс Медиа"
Режиссер: Андрей Загидуллин
В ролях: Владимир Вдовиченков, Алёна Михайлова, Иван Макаревич, Владислав Абашин, Юлия Мельникова, Аристарх Венес, Ирина Алфёрова, Артём Сучков, Олег Васильков, Евгений Харитонов (II), Игорь Миркурбанов, Ольга Ломоносова

О фильме: В городском коллекторе группа следователей обнаруживает убитых подростков, которых никто никогда не разыскивал. Раскручивая шаг за шагом это дело, полицейские сталкиваются лицом к лицу с безусловным злом — водоворотом большого города, который засасывает и уничтожает слабых — тех, кого никто не любит и не ждет дома. Зло безнаказанно уничтожает людей, и каждый из героев столкнется с ним лично, заглянет внутрь себя, чтобы встретиться с собственными демонами и страхами.

Качество: WEBRip
Видео: XviD build 73, 720x368 (1.957), 25.000 fps, ~ 1600 Kbps (~ 0.240 bit/pixel)
Аудио: 48.0 kHz, MP3, 2/0 ch, 192 kbps
Продолжительность: 3 x ~ 00:44:00
Перевод: Не требуется [Русский]
Cубтитры: нет

Релиз:


[+] MediaInfo
General
Complete name               : D:RazdachiVodovorot.2020.WEBRip.GeneralFilmE01.Vodovorot.avi
Format                      : AVI
Format/Info                 : Audio Video Interleave
File size                   : 557 MiB
Duration                    : 43 min 50 s
Overall bit rate            : 1 777 kb/s
Writing application         : VirtualDubMod 1.5.10.3 | www.virtualdub-fr.org || (build 2550/release)
Writing library             : VirtualDubMod build 2550/release

Video
ID                          : 0
Format                      : MPEG-4 Visual
Format profile              : Advanced Simple@L5
Format settings             : BVOP1 / Custom Matrix
Format settings, BVOP       : 1
Format settings, QPel       : No
Format settings, GMC        : No warppoints
Format settings, Matrix     : Custom
Codec ID                    : XVID
Codec ID/Hint               : XviD
Duration                    : 43 min 50 s
Bit rate                    : 1 575 kb/s
Width                       : 720 pixels
Height                      : 368 pixels
Display aspect ratio        : 1.957
Frame rate                  : 25.000 FPS
Color space                 : YUV
Chroma subsampling          : 4:2:0
Bit depth                   : 8 bits
Scan type                   : Progressive
Compression mode            : Lossy
Bits/(Pixel*Frame)          : 0.238
Stream size                 : 494 MiB (89%)
Writing library             : XviD 73

Audio
ID                          : 1
Format                      : MPEG Audio
Format version              : Version 1
Format profile              : Layer 3
Codec ID                    : 55
Codec ID/Hint               : MP3
Duration                    : 43 min 50 s
Bit rate mode               : Constant
Bit rate                    : 192 kb/s
Channel(s)                  : 2 channels
Sampling rate               : 48.0 kHz
Frame rate                  : 41.667 FPS (1152 SPF)
Compression mode            : Lossy
Stream size                 : 60.2 MiB (11%)
Alignment                   : Aligned on interleaves
Interleave, duration        : 40  ms (1.00 video frame)
Interleave, preload duratio : 504  ms
Writing library             : LAME3.99r
Encoding settings           : -m s -V 4 -q 2 -lowpass 18.6 -b 192



Скриншоты:
[+] Всего файлов в раздаче - 3:
E01.Vodovorot.avi557.18 MB
E02.Vodovorot.avi556.84 MB
E03.Vodovorot.avi557.34 MB

Показать еще раздачи по запросу водоворот:
2020-08-09 U Водоворот [01-08 из 08] (2020) WEBRip-AVC от ExKinoRay 5.31 GB ↑ 69 ↓ 65
2020-08-09 U Водоворот [01-08 из 08] (2020) WEBRip от GeneralFilm 4.29 GB ↑ 171 ↓ 207
2020-08-09 U Водоворот [01-08 из 08] (2020) WEBRip от ExKinoRay 4.84 GB ↑ 153 ↓ 166
2020-08-09 U Водоворот [01-08 из 08] (2020) WEBRip-AVC от Files-х 4.34 GB ↑ 205 ↓ 184
2020-08-09 U Водоворот [01-08 из 08] (2020) WEBRip от Files-x 4.36 GB ↑ 104 ↓ 300
2020-08-09 U Водоворот [01-08 из 08] (2020) WEBRip 1080p от ExKinoRay 14.78 GB ↑ 268 ↓ 486
2020-08-09 U Водоворот [01-08 из 08] (2020) WEBRip 720p от ExKinoRay 10.12 GB ↑ 231 ↓ 602

Отзывы
Зарегистрируйтесь чтобы добавить комментарий.
Загрузите программу
  uTorrent.exe
Обратная связь
Copyleft ©