↑↓torrent.by
Поиск
Логин: Регистрация
Пароль: Восстановить пароль

Кровь машин / Blood Machines (2019) WEBR-DL 1080p | iTunes

Скачать krov-mashin-blood-machines-2019-webr-dl-1080p-itunes.torrent
U Магнитная ссылка Размер: 1.70 GB Раздают: 699 Качают: 156 Добавлен: 2020-07-05 07:44:30
Кровь машин / Blood Machines (2019) WEBR-DL 1080p | iTunes

Название: Кровь машин
Оригинальное название: Blood Machines
Год выхода: 2019
Жанр: фантастика, короткометражка
Режиссер: Сет Икерман
В ролях: Элиза Ласовски, Андерс Хейнриксен, Кристиан Эриксон, Наташа Кэшман, Уолтер Дикерсон, Жоэль Беркманс, Александра Фландрин, Ноэми Стивенс, Марион Левавассёр, Гаранс Сильве

О фильме:
Два космических охотника за головами выслеживают искусственный интеллект, который пытается освободиться. Разобравшись с ним, они становятся свидетелями мистического явления: призрак молодой женщины вырывается из машины, как будто у космического корабля есть душа. Пытаясь понять природу этой сущности, они продолжают свою охоту уже за призраком

Страна: Франция
Студия: Logical Pictures, Rumble Fish Productions
Продолжительность: 00:49:19
Перевод: Дублированный [iTunes]

Файл
Кодек: H.264
Качество: WEBR-DL 1080p
Видео: AVC, 1908x788 (2.40:1), 25 fps ~ 4445 Kbps
Звук: AC3, 48 KHz, 6 ch ~ 384 Kb/s
Субтитры: русские


[+] MI:

General
Unique ID                      : 255079237293036739440792197981251299731 (0xBFE679608B8D3B21535F7CDAA803E993)
Complete name                  : J:wotBLOOD_MACHINES_2019_WEB-DL_1080p-BLUEBIRD.mkv
Format                         : Matroska
Format version                 : Version 4 / Version 2
File size                      : 1.70 GiB
Duration                       : 49mn 19s
Overall bit rate               : 4 927 Kbps
Movie name                     : BLOOD_MACHINES_2019_WEB-DL_1080p-BLUEBIRD
Encoded date                   : UTC 2020-07-02 20:19:04
Writing application            : mkvmerge v43.0.0 ('The Quartermaster') 64-bit
Writing library                : libebml v1.3.10 + libmatroska v1.5.2
Attachements                   : cover.jpg
DURATION                       : 00:49:04.040000000
NUMBER_OF_FRAMES               : 304
NUMBER_OF_BYTES                : 13112
_STATISTICS_WRITING_APP        : mkvmerge v43.0.0 ('The Quartermaster') 64-bit
_STATISTICS_WRITING_DATE_UTC   : 2020-07-02 20:19:04
_STATISTICS_TAGS               : BPS DURATION NUMBER_OF_FRAMES NUMBER_OF_BYTES

Video
ID                             : 1
Format                         : AVC
Format/Info                    : Advanced Video Codec
Format profile                 : High@L4
Format settings, CABAC         : Yes
Format settings, ReFrames      : 5 frames
Format settings, GOP           : N=1
Codec ID                       : V_MPEG4/ISO/AVC
Duration                       : 49mn 19s
Bit rate                       : 4 445 Kbps
Width                          : 1 908 pixels
Height                         : 788 pixels
Display aspect ratio           : 2.40:1
Frame rate mode                : Constant
Frame rate                     : 25.000 fps
Color space                    : YUV
Chroma subsampling             : 4:2:0
Bit depth                      : 8 bits
Scan type                      : Progressive
Bits/(Pixel*Frame)             : 0.118
Stream size                    : 1.53 GiB (90%)
Title                          : BLOOD_MACHINES_2019_WEB-DL_1080p-BLUEBIRD
Language                       : English
Default                        : Yes
Forced                         : No
Color range                    : Limited
Color primaries                : BT.709
Transfer characteristics       : BT.709
Matrix coefficients            : BT.709

Audio
ID                             : 2
Format                         : AC-3
Format/Info                    : Audio Coding 3
Mode extension                 : CM (complete main)
Format settings, Endianness    : Big
Codec ID                       : A_AC3
Duration                       : 49mn 19s
Bit rate mode                  : Constant
Bit rate                       : 384 Kbps
Channel(s)                     : 6 channels
Channel positions              : Front: L C R, Side: L R, LFE
Sampling rate                  : 48.0 KHz
Compression mode               : Lossy
Delay relative to video        : -40ms
Stream size                    : 135 MiB (8%)
Title                          : [DUB] DD 5.1 @ 384 kbps (iTunes)
Language                       : Russian
Default                        : Yes
Forced                         : No

Text
ID                             : 3
Format                         : UTF-8
Codec ID                       : S_TEXT/UTF8
Codec ID/Info                  : UTF-8 Plain Text
Language                       : Russian
Default                        : No
Forced                         : No

Menu
00:00:00.000                   : en:Глава 1
00:06:02.680                   : en:Глава 2
00:12:04.760                   : en:Глава 3
00:18:10.040                   : en:Глава 4
00:24:14.160                   : en:Глава 5
00:30:02.160                   : en:Глава 6
00:35:22.040                   : en:Глава 7
00:41:22.840                   : en:Глава 8



Скриншоты:
[+] Всего файлов в раздаче - 1:
BLOOD_MACHINES_2019_WEB-DL_1080p-BLUEBIRD.mkv1.70 GB

Показать еще раздачи по запросу кровь:
2020-12-30 U Стивен Кинг - Будет кровь (2020) MP3 985.34 MB ↑ 24 ↓ 16
2020-11-08 U Кровь Зевса / Blood of Zeus [S01] (2020) WEB-DL 1080p | NewStation 11.12 GB ↑ 49 ↓ 29
2020-11-08 U Кровь Зевса / Blood of Zeus [S01] (2020) WEBRip | NewStation 2.31 GB ↑ 59 ↓ 10
2020-09-09 U Кровь и сокровища / Blood & Treasure [S01] (2019) WEB-DLRip от Generalfilm | КПК | HDRezka 2.37 GB ↑ 59 ↓ 12
2019-12-04 U Рэмбо: Последняя кровь / Rambo: Last Blood (2019) HDRip | iTunes 748.24 MB ↑ 823 ↓ 36
2019-12-03 U Рэмбо: Последняя кровь / Rambo: Last Blood (2019) BDRip 1080p | iTunes 7.69 GB ↑ 2054 ↓ 1213
2019-11-25 U Рэмбо: Последняя кровь / Рембо: Остання кров / Rambo: Last Blood (2019) WEBRip 1080p | Line | UKR 3.28 GB ↑ 347 ↓ 73

Отзывы
Зарегистрируйтесь чтобы добавить комментарий.
Загрузите программу
  uTorrent.exe
Обратная связь
Copyleft ©