↑↓torrent.by
Поиск
Логин: Регистрация
Пароль: Восстановить пароль

Лучшие приколы скрытой камерой / Best of just for laughs (2020) WEBRip 720p

Скачать luchshie-prikoly-skrytoy-kameroy-best-of-just-for-laughs-2020-webrip-720p.torrent
U Магнитная ссылка Размер: 4.92 GB Раздают: 61 Качают: 52 Добавлен: 2020-07-08 05:15:46
Лучшие приколы скрытой камерой / Best of just for laughs (2020) WEBRip 720p

Название: Лучшие приколы скрытой камерой
Оригинальное название: Best of just for laughs
Год выхода: 2020
Жанр: Юмор, скрытая камера, розыгрыши, приколы.
Режиссер: Just for laughs
В ролях: "жертвы" розыгрышей

О фильме:
Лучшая передача жанра . Ничего не понимающие прохожие оказываются в самых нелепых ситуациях , в этом им помогают несколько профессиональных актёров.Происходящее снимается на скрытую камеру. Встречайте мегаколекцию любимых приколов. Приятного просмотра !!!

Страна: Канада
Продолжительность: 11:26:10
Перевод: не требуется

Файл
Кодек: AVC
Качество: WEBRip 720p
Видео: MPEG-4 AVC, 30.000 fps, ~894 kbps, 1280x720,16:9
Звук: AAC, 2 ch, ~128 kbps
[+] МедиаИнфо

General
Complete name                            : G:ФільмиBEST OF JUST FOR LAUGHS GAGS.mp4
Format                                   : MPEG-4
Format profile                           : Base Media / Version 2
Codec ID                                 : mp42 (isom/mp42)
File size                                : 4.92 GiB
Duration                                 : 11 h 26 min
Overall bit rate mode                    : Variable
Overall bit rate                         : 1 026 kb/s
Encoded date                             : UTC 2020-04-28 09:07:55
Tagged date                              : UTC 2020-04-28 09:07:55
gsst                                     : 0
gstd                                     : 41171022

Video
ID                                       : 1
Format                                   : AVC
Format/Info                              : Advanced Video Codec
Format profile                           : Main@L3.1
Format settings                          : CABAC / 3 Ref Frames
Format settings, CABAC                   : Yes
Format settings, Reference frames        : 3 frames
Codec ID                                 : avc1
Codec ID/Info                            : Advanced Video Coding
Duration                                 : 11 h 26 min
Bit rate                                 : 894 kb/s
Width                                    : 1 280 pixels
Height                                   : 720 pixels
Display aspect ratio                     : 16:9
Frame rate mode                          : Constant
Frame rate                               : 29.970 (30000/1001) FPS
Color space                              : YUV
Chroma subsampling                       : 4:2:0
Bit depth                                : 8 bits
Scan type                                : Progressive
Bits/(Pixel*Frame)                       : 0.032
Stream size                              : 4.28 GiB (87%)
Title                                    : ISO Media file produced by Google Inc. Created on: 04/28/2020.
Writing library                          : x264 core 155 r2901 7d0ff22
Encoded date                             : UTC 2020-04-28 09:07:55
Tagged date                              : UTC 2020-04-28 09:07:55
Color range                              : Limited
Color primaries                          : BT.709
Transfer characteristics                 : BT.709
Matrix coefficients                      : BT.709
Codec configuration box                  : avcC

Audio
ID                                       : 2
Format                                   : AAC LC
Format/Info                              : Advanced Audio Codec Low Complexity
Codec ID                                 : mp4a-40-2
Duration                                 : 11 h 26 min
Bit rate mode                            : Variable
Bit rate                                 : 128 kb/s
Channel(s)                               : 2 channels
Channel layout                           : L R
Sampling rate                            : 44.1 kHz
Frame rate                               : 43.066 FPS (1024 SPF)
Compression mode                         : Lossy
Stream size                              : 628 MiB (12%)
Title                                    : ISO Media file produced by Google Inc. Created on: 04/28/2020.
Language                                 : English
Encoded date                             : UTC 2020-04-28 09:07:55
Tagged date                              : UTC 2020-04-28 09:07:55




Скриншоты:
[+] Всего файлов в раздаче - 1:
BEST OF JUST FOR LAUGHS GAGS.mp44.92 GB

Показать еще раздачи по запросу лучшие:
2020-08-05 U Сборник - Лучшие из лучших: Top 100 хитов радиостанций за Июль [04.08] (2020) MP3 743.13 MB ↑ 134 ↓ 44
2020-08-04 U Сборник - Лучшие новинки сезона: Лето 2020 [Vol.1] (2020) MP3 936.19 MB ↑ 29 ↓ 25
2020-07-20 U Сборник - Зайцев.нет: Лучшие новинки Июля (2020) MP3 422.46 MB ↑ 60 ↓ 32
2020-07-08 U Валерия - Лучшие песни (2020) MP3 650.11 MB ↑ 34 ↓ 19
2020-07-03 U VA - Лучшие из лучших: Top 100 хитов радиостанций за Июнь (2020) MP3 790.28 MB ↑ 155 ↓ 41
2020-06-24 U Лучшие дни / Shao nian de ni / Better Days (2019) BDRip 1080p | L2 13.68 GB ↑ 73 ↓ 13
2020-06-16 U Сборник - Зайцев.Нет: Лучшие новинки [Июнь] (2020) MP3 391.61 MB ↑ 264 ↓ 43

Отзывы
Зарегистрируйтесь чтобы добавить комментарий.
Обратная связь
Copyleft ©